<?xml version="1.0" standalone="no"?>
<!DOCTYPE svg PUBLIC "-//W3C//DTD SVG 1.1//EN" "http://www.w3.org/Graphics/SVG/1.1/DTD/svg11.dtd" >
<svg xmlns="http://www.w3.org/2000/svg" xmlns:xlink="http://www.w3.org/1999/xlink" version="1.1">
<metadata></metadata>
<defs>
<font id="klavika_bold" horiz-adv-x="561" >
<font-face units-per-em="2048" ascent="1638" descent="-410" />
<missing-glyph horiz-adv-x="430" />
<glyph unicode="&#xfb01;" horiz-adv-x="1325" d="M41 762v235h152v129q0 159 80 239.5t257 80.5q109 0 205 -27l-37 -231q-61 12 -110 12q-65 0 -83 -24.5t-18 -81.5v-97h705v-997h-295v762h-410v-762h-294v762h-152zM897 1122v314h295v-314h-295z" />
<glyph unicode="&#xfb02;" horiz-adv-x="1316" d="M41 735v242h152v149q0 159 80 239.5t257 80.5q108 0 213 -27l-36 -231q-61 12 -119 12q-65 0 -83 -24.5t-18 -81.5v-117h224l-21 -242h-203v-735h-294v735h-152zM889 0v1405l295 41v-1446h-295z" />
<glyph horiz-adv-x="0" />
<glyph horiz-adv-x="682" />
<glyph unicode=" "  horiz-adv-x="430" />
<glyph unicode="&#x09;" horiz-adv-x="430" />
<glyph unicode="&#xa0;" horiz-adv-x="430" />
<glyph unicode="!" horiz-adv-x="581" d="M143 0v340h295v-340h-295zM143 829v576h295v-576l-61 -356h-172z" />
<glyph unicode="&#x22;" horiz-adv-x="776" d="M102 897v508h203v-508h-203zM471 897v508h203v-508h-203z" />
<glyph unicode="#" horiz-adv-x="1388" d="M72 322l10 196h244l14 295h-250l10 197h250l17 313h211l-17 -313h291l16 313h211l-16 -313h233l-10 -197h-233l-15 -295h240l-10 -196h-238l-16 -322h-211l16 322h-291l-16 -322h-211l16 322h-245zM537 518h290l15 295h-291z" />
<glyph unicode="$" horiz-adv-x="1028" d="M92 49l53 240q192 -56 326 -56q104 0 137 30t33 118q0 32 -1.5 49.5t-8.5 36t-18 28t-34.5 20.5t-53.5 18.5t-79 17.5q-114 23 -180.5 51t-104.5 78.5t-49.5 113t-11.5 169.5q0 181 76.5 270t267.5 106v236h236v-238q133 -10 231 -34l-30 -252q-156 34 -338 34 q-94 0 -121 -24t-27 -105v-38.5t5 -29t7 -22.5t17 -17.5t23 -14t37 -13t47 -14t65 -16.5q50 -13 90 -25t73 -26.5t57 -27t43 -31.5t31.5 -33.5t21.5 -40t13.5 -44.5t7 -52.5t3 -58.5t0.5 -69q0 -93 -12.5 -156.5t-45.5 -115t-94.5 -81.5t-156.5 -42v-236h-236v232 q-160 13 -299 65z" />
<glyph unicode="%" horiz-adv-x="1785" d="M72 936v151q0 67 15.5 118.5t51.5 93t102 63.5t160 22t159.5 -22t101.5 -63.5t51.5 -92.5t15.5 -119v-151q0 -68 -15.5 -119t-51.5 -92.5t-101.5 -63.5t-159.5 -22t-160 22t-102 63.5t-51.5 93t-15.5 118.5zM299 920q0 -46 22.5 -65t79.5 -19q56 0 78.5 19t22.5 65v184 q0 46 -22.5 65t-78.5 19q-57 0 -79.5 -19t-22.5 -65v-184zM518 53l549 1331l180 -71l-549 -1333zM1047 276v152q0 67 15.5 118.5t51.5 93t102 63.5t160 22t159.5 -22t101.5 -63.5t51.5 -92.5t15.5 -119v-152q0 -67 -15.5 -118.5t-51.5 -93t-101.5 -63t-159.5 -21.5 q-76 0 -133.5 14.5t-94 40t-59.5 64t-32.5 81.5t-9.5 96zM1274 260q0 -46 22.5 -65t79.5 -19q56 0 78.5 19t22.5 65v184q0 46 -22.5 65t-78.5 19q-57 0 -79.5 -19t-22.5 -65v-184z" />
<glyph unicode="&#x26;" horiz-adv-x="1323" d="M123 319v111q0 102 36.5 170t121.5 105q-136 72 -136 251v86q0 342 435 342q239 0 444 -49l-37 -237q-189 39 -407 39q-72 0 -106 -26.5t-34 -82.5v-100q0 -125 119 -125h703v-248h-199v-502q-229 -73 -506 -73q-224 0 -329 92t-105 247zM418 354q0 -65 40 -99t109 -34 q116 0 217 23v311h-204q-75 0 -118.5 -31.5t-43.5 -93.5v-76z" />
<glyph unicode="'" horiz-adv-x="407" d="M102 897v508h203v-508h-203z" />
<glyph unicode="(" horiz-adv-x="667" d="M113 623q0 546 317 938l217 -123q-121 -200 -180 -386.5t-59 -428.5t59 -429t180 -387l-217 -122q-317 392 -317 938z" />
<glyph unicode=")" horiz-adv-x="667" d="M20 -193q121 201 180.5 387.5t59.5 428.5t-59.5 428t-180.5 387l218 123q317 -392 317 -938t-317 -938z" />
<glyph unicode="*" horiz-adv-x="956" d="M82 981v137h270l-147 232l114 75l158 -245l158 245l115 -75l-150 -232h274v-137h-268l144 -223l-117 -74l-156 242l-155 -242l-117 74l143 223h-266z" />
<glyph unicode="+" horiz-adv-x="1058" d="M113 385v225h299v305h235v-305h299v-225h-299v-303h-235v303h-299z" />
<glyph unicode="," horiz-adv-x="559" d="M113 -229l116 229h-98v340h295v-360l-180 -285z" />
<glyph unicode="-" horiz-adv-x="692" d="M82 451v245h528v-245h-528z" />
<glyph unicode="." d="M133 0v340h295v-340h-295z" />
<glyph unicode="/" horiz-adv-x="946" d="M92 -240l510 1624h262l-510 -1624h-262z" />
<glyph unicode="0" horiz-adv-x="1130" d="M113 342v639q0 362 452 362q453 0 453 -362v-639q0 -362 -453 -362q-452 0 -452 362zM408 383q0 -80 32 -112.5t125 -32.5t125.5 32.5t32.5 112.5v557q0 80 -32.5 112.5t-125.5 32.5t-125 -32.5t-32 -112.5v-557z" />
<glyph unicode="1" horiz-adv-x="796" d="M0 1100l387 223h266v-1323h-295v981l-231 -125z" />
<glyph unicode="2" horiz-adv-x="1030" d="M82 1290q204 53 391 53q235 0 338.5 -76.5t103.5 -244.5v-53q0 -59 -1 -86.5t-7 -67.5t-16 -64t-32.5 -63t-52.5 -78t-79 -98q-138 -167 -219 -254h420v-258h-828v252q32 34 74 76.5t60 61.5t46 48.5t54.5 58.5t62.5 70q144 164 166 194q47 63 55 123q3 24 3 64v37 q0 53 -37 74.5t-125 21.5q-76 0 -175 -11t-163 -28z" />
<glyph unicode="3" horiz-adv-x="997" d="M92 25l31 227q150 -27 295 -27q105 0 143.5 24t38.5 85v94q0 57 -36 83t-113 26h-271v251h228q96 0 131.5 29t35.5 98v84q0 64 -33.5 84.5t-131.5 20.5q-119 0 -283 -29l-31 232q168 36 340 36q127 0 212 -18.5t133.5 -58.5t68.5 -95t20 -135v-96q0 -188 -137 -272 q86 -38 124 -96.5t38 -155.5v-105q0 -80 -21 -137.5t-72 -103t-144 -68t-230 -22.5q-200 0 -336 45z" />
<glyph unicode="4" horiz-adv-x="1150" d="M31 281v256l506 786h387v-803h166v-239h-166v-281h-291v281h-602zM319 520h314v510z" />
<glyph unicode="5" horiz-adv-x="1019" d="M102 31l43 237q142 -32 320 -32q100 0 134 28t34 96v56q0 70 -29.5 94.5t-126.5 28.5q-182 7 -325 10v774h747v-256h-453v-279q65 -2 185 -8q86 -5 145.5 -28t92 -62.5t46 -88t13.5 -112.5v-145q-1 -74 -13 -128t-43 -100.5t-82.5 -75t-132 -44.5t-190.5 -16 q-78 0 -182 13.5t-183 37.5z" />
<glyph unicode="6" horiz-adv-x="1060" d="M102 375v499q0 109 30 191t82.5 134.5t133 85t173 45.5t210.5 13q95 0 201 -16l-21 -242q-79 11 -139 11q-209 0 -292 -46.5t-83 -172.5v-101q100 31 226 31q175 0 260.5 -81.5t85.5 -262.5v-88q0 -66 -11 -120.5t-40.5 -107t-76.5 -88t-125 -57.5t-181 -22 q-128 0 -216 30.5t-134 87.5t-64.5 123.5t-18.5 153.5zM397 360q0 -71 29.5 -99t108.5 -28q78 0 108.5 29.5t30.5 97.5v91q0 58 -27.5 80t-73.5 22q-97 0 -176 -37v-156z" />
<glyph unicode="7" horiz-adv-x="935" d="M41 1063v260h854v-250l-440 -1073h-303l436 1063h-547z" />
<glyph unicode="8" horiz-adv-x="1093" d="M102 328v104q0 77 38 133.5t134 108.5q-77 51 -108 104t-31 125v115q0 162 95.5 243.5t316.5 81.5t316 -81.5t95 -243.5v-115q0 -75 -30.5 -127t-108.5 -102q96 -52 134 -108t38 -134v-104q0 -189 -100.5 -268.5t-343.5 -79.5t-344 80t-101 268zM387 332q0 -64 34 -87.5 t126 -23.5q90 0 125 25.5t35 85.5v67q0 29 -3.5 44.5t-20 34t-49 35t-91.5 38.5q-58 -22 -90 -38t-46.5 -35.5t-17 -33.5t-2.5 -45v-67zM420 907q0 -48 22 -71.5t109 -55.5q45 17 70 29.5t37 28.5t14 29t2 40v99q0 53 -26 75.5t-101 22.5t-101 -22.5t-26 -75.5v-99z" />
<glyph unicode="9" horiz-adv-x="1050" d="M82 860v88q0 66 11 120.5t40.5 107t76.5 88t125 57.5t181 22q128 0 216 -30.5t133.5 -87.5t64 -123.5t18.5 -153.5v-499q0 -109 -30 -191t-82.5 -134.5t-133 -85t-173 -45.5t-210.5 -13q-98 0 -200 16l16 242q107 -11 144 -11q204 0 289 47t85 172v101q-100 -31 -225 -31 q-175 0 -260.5 81.5t-85.5 262.5zM377 872q0 -58 27 -80t73 -22q97 0 176 37v156q0 71 -29 99t-108 28q-78 0 -108.5 -29.5t-30.5 -97.5v-91z" />
<glyph unicode=":" d="M133 0v340h295v-340h-295zM133 596v340h295v-340h-295z" />
<glyph unicode=";" horiz-adv-x="559" d="M113 -229l116 229h-98v340h295v-360l-180 -285zM131 596v340h295v-340h-295z" />
<glyph unicode="&#x3c;" horiz-adv-x="1159" d="M61 424v151l908 443l88 -174l-721 -344l721 -344l-88 -176z" />
<glyph unicode="=" horiz-adv-x="1075" d="M113 217v197h850v-197h-850zM113 614v197h850v-197h-850z" />
<glyph unicode="&#x3e;" horiz-adv-x="1159" d="M102 156l721 344l-721 344l88 174l908 -443v-151l-908 -444z" />
<glyph unicode="?" horiz-adv-x="993" d="M72 1384q199 41 374 41q108 0 188 -17.5t131 -49t81.5 -81.5t42.5 -107.5t12 -133.5q0 -71 -2.5 -109.5t-18 -86.5t-36.5 -77.5t-72 -78.5t-110.5 -94.5t-163.5 -122.5l-166 225q82 61 129.5 99.5t79.5 68.5t44.5 56t16.5 47t4 57q0 74 -41 108.5t-151 34.5 q-114 0 -301 -33zM311 0v340h295v-340h-295z" />
<glyph unicode="@" horiz-adv-x="1478" d="M82 682q0 199 82 357.5t238.5 251.5t361.5 93q147 0 268.5 -45.5t200 -123t121.5 -178.5t43 -214q0 -70 -14.5 -135t-45 -123t-75.5 -101t-110 -68t-144 -25q-73 0 -129 31t-76 83q-36 -24 -95 -39.5t-110 -15.5q-72 0 -108.5 41t-36.5 113q0 30 6 67l30 150 q39 221 267 221q129 0 282 -68l-86 -405q23 -19 70 -19q63 0 107 42t63.5 105.5t19.5 141.5q0 79 -27 148.5t-80.5 125.5t-141 88.5t-199.5 32.5q-221 0 -356.5 -149t-135.5 -383q0 -162 71.5 -282.5t191.5 -182t272 -61.5q139 0 291 49l53 -158q-69 -32 -161.5 -49.5 t-176.5 -17.5q-217 0 -384 90t-257 249.5t-90 362.5zM631 657q-13 -67 53 -67q24 0 61 14t62 29l51 217q-50 20 -119 20q-61 0 -75 -67z" />
<glyph unicode="A" horiz-adv-x="1284" d="M20 0l416 1364h410l418 -1364h-320l-74 266h-456l-74 -266h-320zM483 522h314l-156 572z" />
<glyph unicode="B" horiz-adv-x="1171" d="M133 0v1364h539q206 0 297.5 -77t91.5 -222v-139q0 -75 -36 -127.5t-116 -87.5q87 -21 144 -90t57 -162v-133q0 -151 -99 -238.5t-296 -87.5h-582zM440 248h191q82 0 127 25.5t45 93.5v84q0 56 -33.5 85t-95.5 29h-234v-317zM440 805h191q59 0 91 26.5t32 69.5v119 q0 96 -123 96h-191v-311z" />
<glyph unicode="C" horiz-adv-x="1067" d="M102 397v570q0 194 124.5 305.5t373.5 111.5q195 0 395 -43l-43 -268q-196 33 -352 33q-108 0 -149 -46t-41 -142v-472q0 -96 41 -142t149 -46q156 0 352 33l43 -268q-200 -43 -395 -43q-249 0 -373.5 111.5t-124.5 305.5z" />
<glyph unicode="D" horiz-adv-x="1224" d="M133 0v1364h529q121 0 212.5 -29t144 -79.5t78 -112t25.5 -133.5v-656q0 -71 -25.5 -132.5t-78 -112.5t-144 -80t-212.5 -29h-529zM440 272h185q109 0 149.5 40t40.5 126v488q0 86 -40.5 126t-149.5 40h-185v-820z" />
<glyph unicode="E" horiz-adv-x="1093" d="M133 0v1364h858v-272h-551v-250h508v-273h-508v-297h551v-272h-858z" />
<glyph unicode="F" horiz-adv-x="1060" d="M133 0v1364h866v-272h-559v-291h516v-273h-516v-528h-307z" />
<glyph unicode="G" horiz-adv-x="1196" d="M102 397v570q0 194 128 305.5t372 111.5q217 0 436 -43l-37 -268q-218 33 -399 33q-108 0 -150 -48.5t-42 -137.5v-469q0 -90 42.5 -142.5t149.5 -52.5q86 0 182 12v418h289v-641q-227 -65 -471 -65q-243 0 -371.5 113t-128.5 304z" />
<glyph unicode="H" horiz-adv-x="1320" d="M133 0v1364h307v-543h441v543h307v-1364h-307v549h-441v-549h-307z" />
<glyph unicode="I" horiz-adv-x="593" d="M143 0v1364h308v-1364h-308z" />
<glyph unicode="J" horiz-adv-x="563" d="M-33 -215q112 90 139 125.5t27 89.5v1364h307v-1411q0 -92 -71.5 -181.5t-218.5 -203.5z" />
<glyph unicode="K" horiz-adv-x="1263" d="M133 0v1364h307v-1364h-307zM479 696l369 668h346l-383 -668l412 -696h-346z" />
<glyph unicode="L" horiz-adv-x="1021" d="M133 0v1364h307v-1092h541v-272h-848z" />
<glyph unicode="M" horiz-adv-x="1609" d="M113 0l57 1364h307l328 -868l328 868h307l57 -1364h-297l-20 758l-238 -582h-274l-238 582l-20 -758h-297z" />
<glyph unicode="N" horiz-adv-x="1384" d="M133 0v1364h377l448 -940v940h293v-1364h-379l-446 897v-897h-293z" />
<glyph unicode="O" horiz-adv-x="1261" d="M102 397v570q0 64 17.5 123t58 113t100.5 94t150.5 63.5t202.5 23.5t202.5 -23.5t150 -63.5t100 -94t58 -113t17.5 -123v-570q0 -64 -17.5 -123t-58 -113t-100 -94t-150 -63.5t-202.5 -23.5t-202.5 23.5t-150.5 63.5t-100.5 94t-58 113t-17.5 123zM410 424 q0 -172 221 -172t221 172v516q0 172 -221 172t-221 -172v-516z" />
<glyph unicode="P" horiz-adv-x="1196" d="M133 0v1364h557q243 0 349 -95t106 -292v-178q0 -195 -113 -290t-358 -95h-234v-414h-307zM440 680h234q96 0 130 35t34 114v119q0 77 -35.5 110.5t-128.5 33.5h-234v-412z" />
<glyph unicode="Q" horiz-adv-x="1261" d="M102 397v570q0 64 17.5 123t58 113t100.5 94t150.5 63.5t202.5 23.5t202.5 -23.5t150 -63.5t100 -94t58 -113t17.5 -123v-570q0 -130 -74.5 -235t-228.5 -152l109 -254l-279 -116l-145 344q-114 10 -201.5 49.5t-138 97.5t-75 125t-24.5 141zM410 424q0 -172 221 -172 t221 172v516q0 172 -221 172t-221 -172v-516z" />
<glyph unicode="R" horiz-adv-x="1316" d="M133 0v1364h567q243 0 349 -95t106 -292v-168q0 -259 -199 -342l330 -467h-364l-301 424h-181v-424h-307zM440 690h244q95 0 129.5 35t34.5 115v108q0 78 -36 111t-128 33h-244v-402z" />
<glyph unicode="S" horiz-adv-x="1114" d="M92 68l51 237q208 -65 394 -65q117 0 152.5 28.5t35.5 116.5q0 36 -1 53.5t-9.5 38t-20 29.5t-40.5 22t-63.5 21.5t-94.5 21.5q-86 19 -143 36.5t-101.5 43t-69 53t-40 73.5t-20.5 97t-5 130q0 85 13 144.5t44.5 106.5t86 74t134.5 41t193 14q206 0 413 -45l-30 -258 q-225 39 -379 39q-102 0 -135 -25t-33 -100v-43.5t5 -33t7.5 -26t18 -19.5t25.5 -16t40.5 -14t52.5 -15t72 -17q71 -17 123 -32t93 -34.5t68.5 -36.5t47.5 -44t30 -50.5t16 -63.5t7.5 -75t1.5 -92q0 -86 -12.5 -146.5t-45 -111.5t-88.5 -81.5t-143.5 -47t-210.5 -16.5 q-117 0 -234 24t-206 64z" />
<glyph unicode="T" horiz-adv-x="1089" d="M25 1092v272h1040v-272h-367v-1092h-307v1092h-366z" />
<glyph unicode="U" horiz-adv-x="1273" d="M123 397v967h307v-938q0 -87 48 -130.5t159 -43.5t159 43.5t48 130.5v938h307v-967q0 -82 -27 -153t-84.5 -132t-160.5 -96.5t-242 -35.5t-242 35.5t-160.5 96.5t-84.5 132t-27 153z" />
<glyph unicode="V" horiz-adv-x="1208" d="M0 1364h315l289 -1085l289 1085h315l-385 -1364h-438z" />
<glyph unicode="W" horiz-adv-x="1933" d="M10 1364h303l232 -975l237 975h375l234 -975l229 975h303l-334 -1364h-391l-229 1036l-232 -1036h-391z" />
<glyph unicode="X" horiz-adv-x="1253" d="M41 0l412 692l-398 672h322l250 -430l250 430h321l-399 -672l413 -692h-321l-264 451l-265 -451h-321z" />
<glyph unicode="Y" horiz-adv-x="1155" d="M0 1364h322l256 -633l256 633h321l-424 -971v-393h-307v393z" />
<glyph unicode="Z" horiz-adv-x="1159" d="M102 0v250l600 862h-573v252h918v-252l-594 -860h604v-252h-955z" />
<glyph unicode="[" horiz-adv-x="653" d="M154 -258v1876h458v-236h-163v-1405h163v-235h-458z" />
<glyph unicode="\" horiz-adv-x="946" d="M82 1384h262l510 -1624h-262z" />
<glyph unicode="]" horiz-adv-x="653" d="M41 -23h164v1405h-164v236h459v-1876h-459v235z" />
<glyph unicode="^" horiz-adv-x="954" d="M72 858l309 547h188l314 -547l-176 -106l-232 411l-231 -411z" />
<glyph unicode="_" horiz-adv-x="909" d="M-2 -20h913v-156h-913v156z" />
<glyph unicode="`" horiz-adv-x="634" d="M113 1292l110 172q138 -101 309 -209l-102 -155q-138 76 -317 192z" />
<glyph unicode="a" horiz-adv-x="1021" d="M102 283q0 149 71 214.5t226 65.5h215v76q0 56 -11 82.5t-49 40.5t-116 14q-124 0 -270 -28l-39 221q70 22 170.5 35.5t187.5 13.5q130 0 212 -20t129 -68t64 -116t17 -177v-637h-241l-21 63q-152 -83 -285 -83q-131 0 -195.5 83.5t-64.5 219.5zM385 287 q0 -41 18.5 -59.5t61.5 -18.5q70 0 149 35v114h-141q-48 0 -68 -15.5t-20 -55.5z" />
<glyph unicode="b" horiz-adv-x="1099" d="M133 12v1393l295 41v-483q142 55 283 55q307 0 307 -361v-258q0 -64 -7 -114t-25.5 -100t-53 -85.5t-86 -63.5t-129 -42t-178.5 -14q-215 0 -406 32zM428 240q43 -4 121 -4q102 0 138 40.5t36 120.5v258q0 107 -107 107q-84 0 -188 -55v-467z" />
<glyph unicode="c" horiz-adv-x="831" d="M72 385v227q0 214 107 310t349 96q107 0 242 -31l-37 -246q-109 25 -205 25q-87 0 -124 -36t-37 -114v-235q0 -78 37 -114t124 -36q92 0 205 25l37 -246q-130 -30 -242 -30q-242 0 -349 95.5t-107 309.5z" />
<glyph unicode="d" horiz-adv-x="1099" d="M82 348v301q0 369 336 369q131 0 254 -29v416l295 41v-1446h-232l-30 80q-61 -39 -147 -69.5t-161 -30.5q-153 0 -234 93t-81 275zM377 348q0 -112 106 -112q48 0 100.5 23t88.5 54v424q-106 25 -189 25q-106 0 -106 -113v-301z" />
<glyph unicode="e" horiz-adv-x="995" d="M82 385v233q0 86 21 154.5t68 125.5t133 88.5t206 31.5q97 0 169.5 -23t116 -60t71 -92t37 -112t9.5 -127v-209h-536v-28q0 -85 38.5 -115.5t141.5 -30.5q163 0 303 43l43 -221q-73 -27 -174.5 -45t-200.5 -18q-446 0 -446 405zM377 616h258v43q0 60 -26 93.5t-97 33.5 q-135 0 -135 -127v-43z" />
<glyph unicode="f" horiz-adv-x="755" d="M41 735v242h152v149q0 159 80 239.5t257 80.5q81 0 226 -29l-37 -231q-72 14 -131 14q-65 0 -83 -24.5t-18 -81.5v-117h236l-21 -242h-215v-735h-294v735h-152z" />
<glyph unicode="g" horiz-adv-x="991" d="M72 -373l43 215q168 -41 327 -41q125 0 170 12.5t45 59.5q0 29 -16 39.5t-61 15.5q-50 4 -84.5 7.5t-78.5 8t-91 9.5q-56 6 -91.5 15t-65 28.5t-43 53t-13.5 83.5q0 96 86 182q-127 75 -127 256v121q3 158 99.5 242t307.5 84q84 0 170 -21h312v-139l-101 -37 q24 -58 27 -129v-121q0 -147 -104 -232t-304 -85h-30q-14 -8 -21 -13.5t-14.5 -17t-7.5 -24.5q0 -17 9 -28t23 -13q202 -21 248 -25q130 -11 186 -64.5t56 -179.5q0 -174 -109.5 -243.5t-349.5 -69.5q-82 0 -193.5 13.5t-203.5 37.5zM346 586q0 -52 31 -75.5t102 -23.5 t102 23.5t31 75.5v94q0 52 -31 78t-102 26t-102 -26t-31 -78v-94z" />
<glyph unicode="h" horiz-adv-x="1132" d="M133 0v1405l291 41v-520q202 92 356 92q230 0 230 -320v-698h-295v659q0 72 -72 72q-37 0 -98.5 -22.5t-116.5 -51.5v-657h-295z" />
<glyph unicode="i" d="M133 0v997h295v-997h-295zM133 1122v314h295v-314h-295z" />
<glyph unicode="j" horiz-adv-x="540" d="M-31 -231q6 6 29 27t28.5 26.5t23 22.5t22 24t17 22t16 24t9.5 23t7.5 27t1.5 27v1005h295v-1044q0 -86 -64 -171.5t-207 -205.5zM123 1122v314h295v-314h-295z" />
<glyph unicode="k" horiz-adv-x="1079" d="M133 0v1405l295 41v-1446h-295zM467 502l254 495h315l-262 -495l275 -502h-316z" />
<glyph unicode="l" d="M133 0v1405l295 41v-1446h-295z" />
<glyph unicode="m" horiz-adv-x="1714" d="M133 0v997h219l31 -75q91 44 200.5 70t196.5 26q128 0 183 -96q197 96 399 96q122 0 175.5 -83t53.5 -237v-698h-295v659q0 72 -71 72q-38 0 -101.5 -22t-113.5 -50v-659h-295v659q0 72 -72 72q-38 0 -101.5 -22t-113.5 -50v-659h-295z" />
<glyph unicode="n" horiz-adv-x="1132" d="M133 0v997h219l31 -75q91 44 200.5 70t196.5 26q230 0 230 -320v-698h-295v659q0 72 -72 72q-38 0 -101.5 -22t-113.5 -50v-659h-295z" />
<glyph unicode="o" horiz-adv-x="1064" d="M82 383v231q0 83 21.5 151t70 127t140 92.5t218.5 33.5t218.5 -33.5t140.5 -92.5t70.5 -127.5t21.5 -150.5v-231q0 -65 -12.5 -121t-44.5 -109t-82 -90.5t-129.5 -60t-182.5 -22.5t-182.5 22.5t-129 60t-81.5 90.5t-44.5 109t-12.5 121zM377 375q0 -148 155 -148 q156 0 156 148v248q0 147 -156 147q-155 0 -155 -147v-248z" />
<glyph unicode="p" horiz-adv-x="1099" d="M133 -444v1441h232l30 -79q61 39 146.5 69.5t160.5 30.5q153 0 234.5 -93.5t81.5 -275.5v-301q0 -368 -336 -368q-135 0 -254 28v-411zM428 260q102 -24 188 -24q107 0 107 112v301q0 113 -107 113q-47 0 -99.5 -23.5t-88.5 -54.5v-424z" />
<glyph unicode="q" horiz-adv-x="1099" d="M82 340v258q0 55 5 98.5t18 88.5t35.5 78.5t59 63.5t86 49.5t119 30.5t156.5 11q191 0 406 -35v-1386l-295 -41v479q-142 -55 -283 -55q-307 0 -307 360zM377 342q0 -106 106 -106q85 0 189 55v467q-43 4 -121 4q-102 0 -138 -41t-36 -121v-258z" />
<glyph unicode="r" horiz-adv-x="706" d="M133 0v997h246l20 -96q49 33 130.5 69.5t138.5 47.5l24 -279q-182 -72 -264 -131v-608h-295z" />
<glyph unicode="s" horiz-adv-x="886" d="M82 39l47 219q148 -45 301 -45q63 0 82.5 18.5t19.5 65.5q0 28 -2 39t-19 25t-47 23t-93 24q-73 18 -120.5 38t-77 42.5t-44 58.5t-19 73t-4.5 99q0 82 17.5 136t61 92t117 54.5t185.5 16.5q178 0 304 -33l-27 -229q-154 28 -275 28q-62 0 -84 -15.5t-22 -51.5 q0 -46 19.5 -61t107.5 -35q73 -16 122 -31.5t83.5 -37t54 -42t30 -55.5t13 -68.5t2.5 -89.5q0 -162 -83 -239.5t-288 -77.5q-81 0 -184.5 17t-177.5 42z" />
<glyph unicode="t" horiz-adv-x="737" d="M31 760v237h135v240l295 41v-281h227l-16 -237h-211v-484q0 -55 61 -55q65 0 123 19l35 -224q-103 -36 -213 -36q-148 0 -224.5 61t-76.5 195v524h-135z" />
<glyph unicode="u" horiz-adv-x="1132" d="M123 299v698h295v-659q0 -72 71 -72q38 0 102 22t114 50v659h294v-997h-219l-30 76q-91 -44 -201 -70t-197 -26q-122 0 -175.5 83t-53.5 236z" />
<glyph unicode="v" horiz-adv-x="1024" d="M10 997h299l203 -706l203 706h299l-314 -997h-376z" />
<glyph unicode="w" horiz-adv-x="1443" d="M37 997h270l94 -583l174 583h295l172 -583l95 583h270l-172 -997h-320l-194 651l-193 -651h-319z" />
<glyph unicode="x" horiz-adv-x="1007" d="M31 0l317 502l-309 495h291l174 -272l174 272h291l-310 -495l318 -502h-297l-176 276l-176 -276h-297z" />
<glyph unicode="y" horiz-adv-x="1013" d="M10 997h299l203 -706l203 706h299l-314 -997l-127 -403h-278l117 403h-95z" />
<glyph unicode="z" horiz-adv-x="942" d="M92 0v225l412 547h-410v225h754v-225l-414 -547h426v-225h-768z" />
<glyph unicode="{" horiz-adv-x="696" d="M82 553v221h53q74 0 74 70v469q0 305 289 305h178v-234h-90q-42 0 -62 -20t-20 -66v-419q0 -209 -195 -215q195 -6 195 -215v-420q0 -46 20 -66t62 -20h90v-234h-178q-289 0 -289 305v469q0 70 -74 70h-53z" />
<glyph unicode="|" horiz-adv-x="532" d="M164 -430v2048h205v-2048h-205z" />
<glyph unicode="}" horiz-adv-x="696" d="M20 -57h91q42 0 62 20t20 66v420q0 209 194 215q-194 6 -194 215v419q0 46 -20 66t-62 20h-91v234h179q288 0 288 -305v-469q0 -70 74 -70h53v-221h-53q-74 0 -74 -70v-469q0 -305 -288 -305h-179v234z" />
<glyph unicode="~" horiz-adv-x="944" d="M51 475q48 125 118 191.5t171 66.5q34 0 76.5 -20t76 -43.5t71 -43.5t61.5 -20q45 0 79 39t50 88l159 -92q-87 -258 -288 -258q-46 0 -92.5 20t-77.5 43.5t-63 43.5t-52 20q-46 0 -75.5 -35t-53.5 -92z" />
<glyph unicode="&#xa1;" horiz-adv-x="581" d="M143 168l62 356h172l61 -356v-571h-295v571zM143 657v340h295v-340h-295z" />
<glyph unicode="&#xa2;" horiz-adv-x="872" d="M72 569v228q0 180 74 274.5t239 120.5v192h190v-184q65 -2 195 -29l-37 -245q-105 24 -205 24q-88 0 -124.5 -35.5t-36.5 -113.5v-236q0 -78 36.5 -113.5t124.5 -35.5q97 0 205 24l37 -245q-106 -25 -195 -31v-184h-190v194q-165 25 -239 119.5t-74 275.5z" />
<glyph unicode="&#xa3;" horiz-adv-x="1112" d="M113 575v211h147q-35 149 -35 220q0 178 100 257.5t318 79.5q180 0 371 -49l-39 -231q-161 35 -330 35q-69 0 -97 -29t-28 -88q0 -77 33 -195h358l-20 -211h-313q2 -14 2 -40q0 -150 -127 -283h567v-252h-897v252q162 124 162 287q0 24 -2 36h-170z" />
<glyph unicode="&#xa4;" horiz-adv-x="1196" d="M113 305l139 139q-19 49 -19 105v274q0 53 19 105l-139 139l174 174l157 -160q68 19 154 19q84 0 152 -19l159 160l174 -174l-139 -139q21 -50 21 -105v-274q0 -57 -21 -107l139 -137l-174 -174l-159 158q-73 -17 -152 -17q-81 0 -154 17l-157 -158zM483 582 q0 -53 29 -69.5t86 -16.5t87 16.5t30 69.5v209q0 53 -30 69.5t-87 16.5t-86 -16.5t-29 -69.5v-209z" />
<glyph unicode="&#xa5;" horiz-adv-x="1122" d="M0 1323h322l239 -592l240 592h321l-239 -545h125v-190h-209l-70 -160h279v-182h-293v-246h-307v246h-291v182h274l-69 160h-205v190h123z" />
<glyph unicode="&#xa6;" horiz-adv-x="532" d="M164 424h205v-854h-205v854zM164 764v854h205v-854h-205z" />
<glyph unicode="&#xa7;" horiz-adv-x="1095" d="M92 1141q0 117 76.5 180t222.5 63q87 0 196.5 -18.5t180.5 -40.5l-35 -195q-206 48 -307 48q-88 0 -88 -82q0 -308 203 -1045l-230 -51q-91 300 -155 614t-64 527zM338 -324l35 195q202 -47 307 -47q88 0 88 82q0 307 -203 1044l230 51q92 -301 155.5 -614t63.5 -526 q0 -118 -76.5 -181t-222.5 -63q-87 0 -196.5 18.5t-180.5 40.5z" />
<glyph unicode="&#xa8;" horiz-adv-x="888" d="M113 1135v241h233v-241h-233zM543 1135v241h233v-241h-233z" />
<glyph unicode="&#xa9;" horiz-adv-x="1568" d="M82 682q0 194 86 354t247.5 255t368.5 95q156 0 288.5 -55.5t222.5 -150.5t141 -224t51 -274q0 -144 -51 -272.5t-141 -223.5t-223 -150.5t-288 -55.5q-207 0 -368.5 95t-247.5 254t-86 353zM281 682q0 -219 139 -364.5t364 -145.5t364.5 145.5t139.5 364.5 q0 220 -139.5 366t-364.5 146q-149 0 -264.5 -67.5t-177 -184t-61.5 -260.5zM502 590v192q0 130 75.5 195t239.5 65q110 0 187 -22l-27 -180q-77 18 -160 18q-53 0 -76.5 -22.5t-23.5 -69.5v-158q0 -50 23 -72t77 -22q87 0 160 16l27 -180q-80 -22 -187 -22 q-164 0 -239.5 66t-75.5 196z" />
<glyph unicode="&#xaa;" horiz-adv-x="772" d="M133 954q0 97 45.5 139t145.5 42h137v49q0 52 -20.5 70t-92.5 18q-79 0 -172 -19l-26 142q102 30 229 30q110 0 168.5 -25t80 -75t21.5 -143v-408h-155l-13 41q-96 -53 -182 -53q-83 0 -124.5 53.5t-41.5 138.5zM313 958q0 -28 12 -39.5t40 -11.5q40 0 96 23v74h-90 q-31 0 -44.5 -10t-13.5 -36z" />
<glyph unicode="&#xab;" horiz-adv-x="1146" d="M92 500l260 395l187 -117l-183 -278l183 -279l-187 -117zM547 500l260 395l186 -117l-182 -278l182 -279l-186 -117z" />
<glyph unicode="&#xac;" horiz-adv-x="1038" d="M82 528v226h823v-541h-246v315h-577z" />
<glyph unicode="&#xad;" horiz-adv-x="692" d="M82 451v245h528v-245h-528z" />
<glyph unicode="&#xae;" horiz-adv-x="923" d="M92 1055q0 158 102.5 264t266.5 106q166 0 268 -106t102 -264q0 -159 -102.5 -266t-267.5 -107q-164 0 -266.5 107t-102.5 266zM213 1055q0 -111 63.5 -184.5t184.5 -73.5t185.5 73.5t64.5 184.5t-64 183.5t-186 72.5q-121 0 -184.5 -72.5t-63.5 -183.5zM336 893v340h141 q113 0 113 -98v-33q0 -62 -45 -84l86 -125h-94l-78 111h-41v-111h-82zM418 1077h53q39 0 39 33v16q0 31 -39 31h-53v-80z" />
<glyph unicode="&#xaf;" horiz-adv-x="704" d="M92 1147v188h520v-188h-520z" />
<glyph unicode="&#xb0;" horiz-adv-x="763" d="M102 1069q0 117 77 195.5t204 78.5t203 -78.5t76 -195.5t-76 -195.5t-203 -78.5q-129 0 -205 78t-76 196zM260 1069q0 -59 32 -97t91 -38q58 0 89.5 38.5t31.5 96.5q0 60 -31 97.5t-90 37.5q-60 0 -91.5 -37.5t-31.5 -97.5z" />
<glyph unicode="&#xb1;" horiz-adv-x="1058" d="M113 0v215h833v-215h-833zM113 629v225h299v305h235v-305h299v-225h-299v-303h-235v303h-299z" />
<glyph unicode="&#xb2;" horiz-adv-x="806" d="M102 1300q147 43 287 43q151 0 209.5 -54t58.5 -175v-67q0 -53 -16 -96.5t-68 -104.5q-81 -98 -143 -168h254v-180h-561v159q28 29 83 86.5t105 108.5q66 67 93.5 101t32.5 47.5t5 39.5v39q0 40 -16.5 54t-60.5 14q-88 0 -224 -33z" />
<glyph unicode="&#xb3;" horiz-adv-x="751" d="M102 514l27 164q98 -23 205 -23q57 0 77.5 16.5t20.5 51.5v43q0 33 -17.5 48t-56.5 15h-206v166h200q68 0 68 62v45q0 39 -18.5 54t-79.5 15q-86 0 -177 -16l-24 162q113 26 211 26q161 0 228 -53t67 -162v-47q0 -59 -20 -93.5t-75 -67.5q64 -21 85.5 -61t21.5 -105v-45 q0 -113 -65.5 -170.5t-237.5 -57.5q-125 0 -234 33z" />
<glyph unicode="&#xb4;" horiz-adv-x="634" d="M102 1255q178 112 310 209l110 -172q-179 -116 -317 -192z" />
<glyph unicode="&#xb5;" horiz-adv-x="1132" d="M123 -403v1400h295v-659q0 -72 71 -72q38 0 102 22t114 50v659h294v-997h-219l-30 76q-156 -75 -332 -92v-387h-295z" />
<glyph unicode="&#xb6;" horiz-adv-x="1101" d="M92 903q0 197 132 329t329 132v-920q-197 0 -329 131.5t-132 327.5zM473 -264q180 163 205 190q39 43 44 79q1 12 1 38v1321h225v-1354q0 -24 -2 -42t-4 -34t-11 -33t-14.5 -29.5t-24.5 -33t-32 -34.5t-44.5 -43t-53.5 -49t-68.5 -62t-81.5 -74z" />
<glyph unicode="&#xb7;" d="M133 520v340h295v-340h-295z" />
<glyph unicode="&#xb8;" horiz-adv-x="585" d="M92 -371l29 113q73 -21 127 -21q50 0 73 10t23 36q0 14 -3.5 23t-7 13.5t-16 6.5t-18.5 2h-27q-4 0 -86 -5l-41 35l43 199h129l-26 -137q110 15 156.5 -19t46.5 -121q0 -81 -53.5 -124t-176.5 -43q-33 0 -85.5 9.5t-86.5 22.5z" />
<glyph unicode="&#xb9;" horiz-adv-x="729" d="M72 1163l293 160h170v-829h-216v583l-172 -82z" />
<glyph unicode="&#xba;" horiz-adv-x="821" d="M123 1020v147q0 53 14 96.5t45 81t89.5 59t140.5 21.5q81 0 139 -21.5t89 -59t44.5 -81t13.5 -96.5v-147q0 -53 -13.5 -96.5t-44.5 -81t-89 -59t-139 -21.5q-82 0 -140.5 21.5t-89.5 59t-45 81t-14 96.5zM311 1014q0 -94 101 -94q98 0 98 94v160q0 94 -98 94 q-101 0 -101 -94v-160z" />
<glyph unicode="&#xbb;" horiz-adv-x="1146" d="M154 221l182 279l-182 278l186 117l260 -395l-260 -396zM608 221l183 279l-183 278l187 117l260 -395l-260 -396z" />
<glyph unicode="&#xbc;" horiz-adv-x="1777" d="M72 1163l293 160h170v-829h-216v583l-172 -82zM432 -20l637 1435l160 -72l-635 -1433zM954 158v147l283 524h297v-505h121v-166h-121v-158h-205v158h-375zM1165 324h164v331z" />
<glyph unicode="&#xbd;" horiz-adv-x="1798" d="M72 1163l293 160h170v-829h-216v583l-172 -82zM430 -20l637 1435l160 -72l-635 -1433zM1094 803q147 43 286 43q151 0 210 -54.5t59 -175.5v-67q0 -53 -16 -96.5t-68 -104.5q-66 -79 -144 -168h254v-180h-561v160q126 130 189 194q66 67 93.5 101t32.5 48t5 40v39 q0 39 -16.5 53t-61.5 14q-87 0 -223 -33z" />
<glyph unicode="&#xbe;" horiz-adv-x="1812" d="M92 514l27 160q95 -19 237 -19q66 0 66 60v59q0 32 -16 46t-50 14h-215v157h201q68 0 68 62v49q0 39 -19 54t-80 15q-113 0 -176 -14l-24 162q110 24 211 24q161 0 227.5 -53t66.5 -162v-47q0 -59 -19.5 -93.5t-74.5 -67.5q64 -21 85.5 -61t21.5 -105v-45 q0 -113 -65.5 -170.5t-237.5 -57.5q-125 0 -234 33zM463 -20l635 1435l159 -72l-632 -1433zM989 158v147l283 524h297v-505h121v-166h-121v-158h-205v158h-375zM1200 324h164v331z" />
<glyph unicode="&#xbf;" horiz-adv-x="993" d="M92 -35q0 71 2.5 109.5t18.5 85.5t36.5 75.5t72.5 78.5t110 94t164 122l166 -225q-70 -52 -111.5 -84t-75.5 -63t-49 -48t-25.5 -40.5t-12 -40.5t-1.5 -47q0 -74 41.5 -109t151.5 -35q114 0 301 33l41 -254q-199 -41 -375 -41q-108 0 -188 17.5t-131 49t-81.5 81.5 t-42.5 107.5t-12 133.5zM387 657v340h295v-340h-295z" />
<glyph unicode="&#xc0;" horiz-adv-x="1284" d="M20 0l416 1364h410l418 -1364h-320l-74 266h-456l-74 -266h-320zM383 1620l111 172q97 -74 278 -188l-102 -156q-171 89 -287 172zM483 522h314l-156 572z" />
<glyph unicode="&#xc1;" horiz-adv-x="1284" d="M20 0l416 1364h410l418 -1364h-320l-74 266h-456l-74 -266h-320zM483 522h314l-156 572zM547 1604q181 114 278 188l111 -172q-116 -83 -287 -172z" />
<glyph unicode="&#xc2;" horiz-adv-x="1284" d="M20 0l416 1364h410l418 -1364h-320l-74 266h-456l-74 -266h-320zM379 1585q133 91 262 193q129 -102 262 -193l-80 -127q-97 43 -182 92q-85 -49 -182 -92zM483 522h314l-156 572z" />
<glyph unicode="&#xc3;" horiz-adv-x="1284" d="M20 0l416 1364h410l418 -1364h-320l-74 266h-456l-74 -266h-320zM313 1556q40 78 95 128.5t120 50.5q70 0 134 -43q71 -47 104 -47t51 20.5t27 63.5l139 -64q-27 -94 -83 -145.5t-134 -51.5q-76 0 -137 43q-26 19 -34.5 25t-25.5 13t-34 7q-10 0 -19 -2.5t-18 -9.5 t-15 -12t-15 -17t-12.5 -16t-13 -18.5t-10.5 -16.5zM483 522h314l-156 572z" />
<glyph unicode="&#xc4;" horiz-adv-x="1284" d="M20 0l416 1364h410l418 -1364h-320l-74 266h-456l-74 -266h-320zM317 1489v223h234v-223h-234zM483 522h314l-156 572zM731 1489v223h234v-223h-234z" />
<glyph unicode="&#xc5;" horiz-adv-x="1284" d="M20 0l416 1364h410l418 -1364h-320l-74 266h-456l-74 -266h-320zM461 1620q0 74 49.5 124t130.5 50t130.5 -50t49.5 -124q0 -73 -49.5 -122.5t-130.5 -49.5q-82 0 -131 47.5t-49 124.5zM483 522h314l-156 572zM571 1620q0 -32 19 -52t51 -20t51 20t19 52q0 34 -19 54 t-51 20t-51 -20t-19 -54z" />
<glyph unicode="&#xc6;" horiz-adv-x="1751" d="M20 0l416 1364h1213v-272h-721l78 -250h600v-273h-519l93 -297h469v-272h-705l-74 266h-456l-74 -266h-320zM483 522h314l-156 572z" />
<glyph unicode="&#xc7;" horiz-adv-x="1067" d="M102 397v570q0 194 124.5 305.5t373.5 111.5q195 0 395 -43l-43 -268q-196 33 -352 33q-190 0 -190 -188v-472q0 -188 190 -188q156 0 352 33l43 -268q-179 -38 -338 -41l-14 -78q110 15 156.5 -19t46.5 -121q0 -81 -53.5 -124t-176.5 -43q-33 0 -85.5 9.5t-86.5 22.5 l29 113q73 -21 127 -21q50 0 73 10t23 36q0 17 -3 26.5t-15 13.5t-20 4.5t-33 0.5q-3 0 -86 -5l-41 35l30 142q-214 15 -320 124.5t-106 288.5z" />
<glyph unicode="&#xc8;" horiz-adv-x="1093" d="M133 0v1364h858v-272h-551v-250h508v-273h-508v-297h551v-272h-858zM326 1620l110 172q92 -70 279 -188l-103 -156q-167 87 -286 172z" />
<glyph unicode="&#xc9;" horiz-adv-x="1093" d="M133 0v1364h858v-272h-551v-250h508v-273h-508v-297h551v-272h-858zM420 1604q181 114 278 188l111 -172q-116 -83 -287 -172z" />
<glyph unicode="&#xca;" horiz-adv-x="1093" d="M133 0v1364h858v-272h-551v-250h508v-273h-508v-297h551v-272h-858zM322 1585q133 91 262 193q129 -102 262 -193l-80 -127q-97 43 -182 92q-81 -47 -183 -92z" />
<glyph unicode="&#xcb;" horiz-adv-x="1093" d="M133 0v1364h858v-272h-551v-250h508v-273h-508v-297h551v-272h-858zM246 1489v223h233v-223h-233zM659 1489v223h234v-223h-234z" />
<glyph unicode="&#xcc;" horiz-adv-x="593" d="M47 1620l111 172q97 -74 278 -188l-102 -156q-171 89 -287 172zM143 0v1364h308v-1364h-308z" />
<glyph unicode="&#xcd;" horiz-adv-x="593" d="M143 0v1364h308v-1364h-308zM168 1604q181 114 278 188l111 -172q-116 -83 -287 -172z" />
<glyph unicode="&#xce;" horiz-adv-x="593" d="M35 1585q133 91 262 193q129 -102 262 -193l-80 -127q-97 43 -182 92q-85 -49 -182 -92zM143 0v1364h308v-1364h-308z" />
<glyph unicode="&#xcf;" horiz-adv-x="593" d="M-27 1489v223h234v-223h-234zM143 0v1364h308v-1364h-308zM387 1489v223h234v-223h-234z" />
<glyph unicode="&#xd0;" horiz-adv-x="1277" d="M51 565v244h135v555h529q122 0 213.5 -29t144 -79.5t78 -112t25.5 -133.5v-656q0 -56 -15.5 -106.5t-50.5 -96.5t-87.5 -79t-131 -52.5t-176.5 -19.5h-529v565h-135zM494 272h184q110 0 150 40t40 126v488q0 86 -40 126t-150 40h-184v-283h180v-244h-180v-293z" />
<glyph unicode="&#xd1;" horiz-adv-x="1384" d="M133 0v1364h377l448 -940v940h293v-1364h-379l-446 897v-897h-293zM373 1556q40 78 95 128.5t120 50.5q69 0 133 -43q71 -47 104 -47t51 20.5t27 63.5l139 -64q-27 -94 -83 -145.5t-134 -51.5q-76 0 -137 43q-26 19 -34.5 25t-25.5 13t-34 7q-10 0 -19 -3t-17.5 -9.5 t-15 -12t-15 -16.5t-12.5 -16.5t-12.5 -18.5t-10.5 -16z" />
<glyph unicode="&#xd2;" horiz-adv-x="1261" d="M102 397v570q0 64 17.5 123t58 113t100.5 94t150.5 63.5t202.5 23.5t202.5 -23.5t150 -63.5t100 -94t58 -113t17.5 -123v-570q0 -64 -17.5 -123t-58 -113t-100 -94t-150 -63.5t-202.5 -23.5t-202.5 23.5t-150.5 63.5t-100.5 94t-58 113t-17.5 123zM356 1620l111 172 q97 -74 278 -188l-102 -156q-171 89 -287 172zM410 424q0 -172 221 -172t221 172v516q0 172 -221 172t-221 -172v-516z" />
<glyph unicode="&#xd3;" horiz-adv-x="1261" d="M102 397v570q0 64 17.5 123t58 113t100.5 94t150.5 63.5t202.5 23.5t202.5 -23.5t150 -63.5t100 -94t58 -113t17.5 -123v-570q0 -64 -17.5 -123t-58 -113t-100 -94t-150 -63.5t-202.5 -23.5t-202.5 23.5t-150.5 63.5t-100.5 94t-58 113t-17.5 123zM410 424 q0 -172 221 -172t221 172v516q0 172 -221 172t-221 -172v-516zM512 1604q187 118 279 188l110 -172q-116 -83 -287 -172z" />
<glyph unicode="&#xd4;" horiz-adv-x="1261" d="M102 397v570q0 64 17.5 123t58 113t100.5 94t150.5 63.5t202.5 23.5t202.5 -23.5t150 -63.5t100 -94t58 -113t17.5 -123v-570q0 -64 -17.5 -123t-58 -113t-100 -94t-150 -63.5t-202.5 -23.5t-202.5 23.5t-150.5 63.5t-100.5 94t-58 113t-17.5 123zM369 1585 q133 91 262 193q129 -102 262 -193l-80 -127q-97 43 -182 92q-85 -49 -182 -92zM410 424q0 -172 221 -172t221 172v516q0 172 -221 172t-221 -172v-516z" />
<glyph unicode="&#xd5;" horiz-adv-x="1261" d="M102 397v570q0 64 17.5 123t58 113t100.5 94t150.5 63.5t202.5 23.5t202.5 -23.5t150 -63.5t100 -94t58 -113t17.5 -123v-570q0 -64 -17.5 -123t-58 -113t-100 -94t-150 -63.5t-202.5 -23.5t-202.5 23.5t-150.5 63.5t-100.5 94t-58 113t-17.5 123zM309 1556 q40 78 95 128.5t120 50.5q69 0 133 -43q71 -47 105 -47q33 0 51 20.5t27 63.5l139 -64q-27 -94 -83 -145.5t-134 -51.5q-76 0 -137 43q-25 18 -35 24.5t-26.5 13.5t-33.5 7q-10 0 -19 -3t-17.5 -9.5t-15 -12t-15 -16.5t-12.5 -16.5t-12.5 -18.5t-10.5 -16zM410 424 q0 -172 221 -172t221 172v516q0 172 -221 172t-221 -172v-516z" />
<glyph unicode="&#xd6;" horiz-adv-x="1261" d="M102 397v570q0 64 17.5 123t58 113t100.5 94t150.5 63.5t202.5 23.5t202.5 -23.5t150 -63.5t100 -94t58 -113t17.5 -123v-570q0 -64 -17.5 -123t-58 -113t-100 -94t-150 -63.5t-202.5 -23.5t-202.5 23.5t-150.5 63.5t-100.5 94t-58 113t-17.5 123zM307 1489v223h234v-223 h-234zM410 424q0 -172 221 -172t221 172v516q0 172 -221 172t-221 -172v-516zM721 1489v223h233v-223h-233z" />
<glyph unicode="&#xd7;" horiz-adv-x="983" d="M113 276l211 211l-211 211l168 168l211 -211l210 211l168 -168l-211 -211l211 -211l-168 -167l-210 210l-211 -210z" />
<glyph unicode="&#xd8;" horiz-adv-x="1261" d="M102 -51l107 174q-107 110 -107 274v570q0 64 17.5 123t58 113t100.5 94t150.5 63.5t202.5 23.5q176 0 305 -61l100 164l123 -74l-106 -174q106 -112 106 -272v-570q0 -64 -17.5 -123t-58 -113t-100 -94t-150 -63.5t-202.5 -23.5q-185 0 -307 61l-99 -164zM410 455 l376 620q-60 37 -155 37q-221 0 -221 -172v-485zM475 289q52 -37 156 -37q221 0 221 172v483z" />
<glyph unicode="&#xd9;" horiz-adv-x="1273" d="M123 397v967h307v-938q0 -87 48 -130.5t159 -43.5t159 43.5t48 130.5v938h307v-967q0 -82 -27 -153t-84.5 -132t-160.5 -96.5t-242 -35.5t-242 35.5t-160.5 96.5t-84.5 132t-27 153zM403 1620l111 172q92 -70 279 -188l-103 -156q-171 89 -287 172z" />
<glyph unicode="&#xda;" horiz-adv-x="1273" d="M123 397v967h307v-938q0 -87 48 -130.5t159 -43.5t159 43.5t48 130.5v938h307v-967q0 -82 -27 -153t-84.5 -132t-160.5 -96.5t-242 -35.5t-242 35.5t-160.5 96.5t-84.5 132t-27 153zM492 1604q181 114 278 188l111 -172q-116 -83 -287 -172z" />
<glyph unicode="&#xdb;" horiz-adv-x="1273" d="M123 397v967h307v-938q0 -87 48 -130.5t159 -43.5t159 43.5t48 130.5v938h307v-967q0 -82 -27 -153t-84.5 -132t-160.5 -96.5t-242 -35.5t-242 35.5t-160.5 96.5t-84.5 132t-27 153zM373 1585q133 91 262 193q129 -102 262 -193l-80 -127q-97 43 -182 92 q-85 -49 -182 -92z" />
<glyph unicode="&#xdc;" horiz-adv-x="1273" d="M123 397v967h307v-938q0 -87 48 -130.5t159 -43.5t159 43.5t48 130.5v938h307v-967q0 -82 -27 -153t-84.5 -132t-160.5 -96.5t-242 -35.5t-242 35.5t-160.5 96.5t-84.5 132t-27 153zM313 1489v223h234v-223h-234zM727 1489v223h234v-223h-234z" />
<glyph unicode="&#xdd;" horiz-adv-x="1155" d="M0 1364h322l256 -633l256 633h321l-424 -971v-393h-307v393zM455 1604q181 114 278 188l111 -172q-116 -83 -287 -172z" />
<glyph unicode="&#xde;" horiz-adv-x="1196" d="M133 0v1364h307v-203h250q243 0 349 -95t106 -292v-178q0 -195 -113 -290t-358 -95h-234v-211h-307zM440 477h234q96 0 130 35.5t34 114.5v118q0 77 -35.5 110.5t-128.5 33.5h-234v-412z" />
<glyph unicode="&#xdf;" horiz-adv-x="1208" d="M133 0v1061q0 385 438 385q219 0 332 -95.5t113 -254.5q0 -102 -82 -234q-51 -80 -63.5 -107.5t-12.5 -52.5q0 -23 22 -52.5t93 -92.5q65 -58 98.5 -92t51.5 -67t21 -55.5t3 -68.5q0 -77 -14 -129t-48 -90.5t-95 -56.5t-152 -18q-55 0 -134.5 9.5t-132.5 26.5l35 220 q94 -23 176 -23q40 0 61 11.5t21 41.5q0 6 -0.5 10.5t-2.5 9.5t-4 8.5t-8.5 10.5t-12 12t-17.5 15.5t-23 20t-31 26.5t-38 33q-104 90 -134 141t-30 133q0 55 15.5 94.5t62.5 112.5q49 77 64.5 116t15.5 81q0 54 -33.5 82t-109.5 28q-80 0 -115 -33.5t-35 -109.5v-1057h-295 z" />
<glyph unicode="&#xe0;" horiz-adv-x="1021" d="M102 283q0 149 71 214.5t226 65.5h215v76q0 56 -11 82.5t-49 40.5t-116 14q-124 0 -270 -28l-39 221q70 22 170.5 35.5t187.5 13.5q130 0 212 -20t129 -68t64 -116t17 -177v-637h-241l-21 63q-152 -83 -285 -83q-131 0 -195.5 83.5t-64.5 219.5zM242 1292l110 172 q132 -97 310 -209l-103 -155q-138 76 -317 192zM385 287q0 -41 18.5 -59.5t61.5 -18.5q70 0 149 35v114h-141q-48 0 -68 -15.5t-20 -55.5z" />
<glyph unicode="&#xe1;" horiz-adv-x="1021" d="M102 283q0 149 71 214.5t226 65.5h215v76q0 56 -11 82.5t-49 40.5t-116 14q-124 0 -270 -28l-39 221q70 22 170.5 35.5t187.5 13.5q130 0 212 -20t129 -68t64 -116t17 -177v-637h-241l-21 63q-152 -83 -285 -83q-131 0 -195.5 83.5t-64.5 219.5zM358 1255 q178 112 310 209l110 -172q-179 -116 -317 -192zM385 287q0 -41 18.5 -59.5t61.5 -18.5q70 0 149 35v114h-141q-48 0 -68 -15.5t-20 -55.5z" />
<glyph unicode="&#xe2;" horiz-adv-x="1021" d="M102 283q0 149 71 214.5t226 65.5h215v76q0 56 -11 82.5t-49 40.5t-116 14q-124 0 -270 -28l-39 221q70 22 170.5 35.5t187.5 13.5q130 0 212 -20t129 -68t64 -116t17 -177v-637h-241l-21 63q-152 -83 -285 -83q-131 0 -195.5 83.5t-64.5 219.5zM227 1208 q165 128 293 240q128 -112 293 -240l-90 -121q-106 64 -203 134q-97 -70 -203 -134zM385 287q0 -41 18.5 -59.5t61.5 -18.5q70 0 149 35v114h-141q-48 0 -68 -15.5t-20 -55.5z" />
<glyph unicode="&#xe3;" horiz-adv-x="1021" d="M102 283q0 149 71 214.5t226 65.5h215v76q0 56 -11 82.5t-49 40.5t-116 14q-124 0 -270 -28l-39 221q70 22 170.5 35.5t187.5 13.5q130 0 212 -20t129 -68t64 -116t17 -177v-637h-241l-21 63q-152 -83 -285 -83q-131 0 -195.5 83.5t-64.5 219.5zM182 1206q40 78 95 128 t120 50q69 0 133 -43q71 -47 105 -47q33 0 51 20.5t27 63.5l139 -63q-27 -94 -83 -145.5t-134 -51.5q-76 0 -137 43q-25 18 -35 24.5t-26.5 13.5t-33.5 7q-10 0 -19 -3t-17.5 -9.5t-15 -12t-15 -16.5t-12.5 -16.5t-12.5 -18.5t-10.5 -16zM385 287q0 -41 18.5 -59.5 t61.5 -18.5q70 0 149 35v114h-141q-48 0 -68 -15.5t-20 -55.5z" />
<glyph unicode="&#xe4;" horiz-adv-x="1021" d="M102 283q0 149 71 214.5t226 65.5h215v76q0 56 -11 82.5t-49 40.5t-116 14q-124 0 -270 -28l-39 221q70 22 170.5 35.5t187.5 13.5q130 0 212 -20t129 -68t64 -116t17 -177v-637h-241l-21 63q-152 -83 -285 -83q-131 0 -195.5 83.5t-64.5 219.5zM197 1135v241h233v-241 h-233zM385 287q0 -41 18.5 -59.5t61.5 -18.5q70 0 149 35v114h-141q-48 0 -68 -15.5t-20 -55.5zM627 1135v241h233v-241h-233z" />
<glyph unicode="&#xe5;" horiz-adv-x="1021" d="M102 283q0 149 71 214.5t226 65.5h215v76q0 56 -11 82.5t-49 40.5t-116 14q-124 0 -270 -28l-39 221q70 22 170.5 35.5t187.5 13.5q130 0 212 -20t129 -68t64 -116t17 -177v-637h-241l-21 63q-152 -83 -285 -83q-131 0 -195.5 83.5t-64.5 219.5zM342 1284q0 81 53.5 136 t145.5 55q93 0 145.5 -54.5t52.5 -136.5t-52.5 -136t-145.5 -54q-95 0 -147 51.5t-52 138.5zM385 287q0 -41 18.5 -59.5t61.5 -18.5q70 0 149 35v114h-141q-48 0 -68 -15.5t-20 -55.5zM465 1284q0 -37 20.5 -59.5t55.5 -22.5t55 22.5t20 59.5t-20 59.5t-55 22.5t-55.5 -22.5 t-20.5 -59.5z" />
<glyph unicode="&#xe6;" horiz-adv-x="1527" d="M102 283q0 149 71 214.5t226 65.5h215v76q0 56 -11 82.5t-49 40.5t-116 14q-124 0 -270 -28l-39 221q70 22 170.5 35.5t187.5 13.5q181 0 299 -76q117 76 256 76q97 0 169.5 -22.5t116.5 -60t71 -92.5t37 -112t10 -127v-209h-537v-45q3 -75 42.5 -102t138.5 -27 q163 0 303 43l43 -221q-73 -27 -174.5 -45t-200.5 -18q-203 0 -313 81q-156 -81 -345 -81q-145 0 -223 84.5t-78 218.5zM385 287q0 -41 18.5 -59.5t61.5 -18.5q70 0 149 35v114h-141q-48 0 -68 -15.5t-20 -55.5zM909 616h258v43q0 60 -26 93.5t-97 33.5q-135 0 -135 -127 v-43z" />
<glyph unicode="&#xe7;" horiz-adv-x="831" d="M72 385v227q0 214 107 310t349 96q107 0 242 -31l-37 -246q-109 25 -205 25q-87 0 -124 -36t-37 -114v-235q0 -78 37 -114t124 -36q92 0 205 25l37 -246q-130 -30 -242 -30l-14 -76q110 15 156.5 -19t46.5 -121q0 -81 -53.5 -124t-176.5 -43q-33 0 -85.5 9.5t-86.5 22.5 l29 113q74 -21 127 -21q50 0 73 10t23 36q0 17 -3 26.5t-15 13.5t-20 4.5t-33 0.5q-4 0 -86 -5l-41 35l30 146q-172 23 -249.5 118t-77.5 279z" />
<glyph unicode="&#xe8;" horiz-adv-x="995" d="M82 385v233q0 86 21 154.5t68 125.5t133 88.5t206 31.5q97 0 169.5 -23t116 -60t71 -92t37 -112t9.5 -127v-209h-536v-28q0 -85 38.5 -115.5t141.5 -30.5q163 0 303 43l43 -221q-73 -27 -174.5 -45t-200.5 -18q-446 0 -446 405zM238 1292l110 172q138 -101 309 -209 l-102 -155q-138 76 -317 192zM377 616h258v43q0 60 -26 93.5t-97 33.5q-135 0 -135 -127v-43z" />
<glyph unicode="&#xe9;" horiz-adv-x="995" d="M82 385v233q0 86 21 154.5t68 125.5t133 88.5t206 31.5q97 0 169.5 -23t116 -60t71 -92t37 -112t9.5 -127v-209h-536v-28q0 -85 38.5 -115.5t141.5 -30.5q163 0 303 43l43 -221q-73 -27 -174.5 -45t-200.5 -18q-446 0 -446 405zM360 1255q178 112 310 209l110 -172 q-179 -116 -317 -192zM377 616h258v43q0 60 -26 93.5t-97 33.5q-135 0 -135 -127v-43z" />
<glyph unicode="&#xea;" horiz-adv-x="995" d="M82 385v233q0 86 21 154.5t68 125.5t133 88.5t206 31.5q97 0 169.5 -23t116 -60t71 -92t37 -112t9.5 -127v-209h-536v-28q0 -85 38.5 -115.5t141.5 -30.5q163 0 303 43l43 -221q-73 -27 -174.5 -45t-200.5 -18q-446 0 -446 405zM217 1208q165 128 293 240 q128 -112 293 -240l-90 -121q-106 64 -203 134q-97 -70 -203 -134zM377 616h258v43q0 60 -26 93.5t-97 33.5q-135 0 -135 -127v-43z" />
<glyph unicode="&#xeb;" horiz-adv-x="995" d="M82 385v233q0 86 21 154.5t68 125.5t133 88.5t206 31.5q97 0 169.5 -23t116 -60t71 -92t37 -112t9.5 -127v-209h-536v-28q0 -85 38.5 -115.5t141.5 -30.5q163 0 303 43l43 -221q-73 -27 -174.5 -45t-200.5 -18q-446 0 -446 405zM182 1135v241h234v-241h-234zM377 616h258 v43q0 60 -26 93.5t-97 33.5q-135 0 -135 -127v-43zM612 1135v241h234v-241h-234z" />
<glyph unicode="&#xec;" d="M2 1292l111 172q138 -101 309 -209l-103 -155q-138 76 -317 192zM133 0v997h295v-997h-295z" />
<glyph unicode="&#xed;" d="M133 0v997h295v-997h-295zM156 1255q171 108 309 209l110 -172q-179 -116 -317 -192z" />
<glyph unicode="&#xee;" d="M-12 1208q165 128 293 240q136 -119 292 -240l-90 -121q-101 60 -202 134q-97 -70 -203 -134zM133 0v997h295v-997h-295z" />
<glyph unicode="&#xef;" d="M-51 1135v241h233v-241h-233zM133 0v997h295v-997h-295zM379 1135v241h233v-241h-233z" />
<glyph unicode="&#xf0;" horiz-adv-x="1003" d="M102 375v61q0 183 77.5 263.5t250.5 80.5q60 0 94.5 -5.5t102.5 -24.5v22q0 152 -107 244l-145 -142l-92 93l123 118q-95 39 -238 66l45 233q223 -26 385 -112l102 100l93 -92l-84 -82q213 -173 213 -477v-367q0 -374 -408 -374q-103 0 -178.5 22t-119.5 57t-70.5 89 t-35 106.5t-8.5 120.5zM391 346q0 -59 28 -89t91 -30q66 0 91.5 28t25.5 99v142q-77 36 -148 36q-44 0 -66 -21.5t-22 -80.5v-84z" />
<glyph unicode="&#xf1;" horiz-adv-x="1132" d="M133 0v997h219l31 -75q91 44 200.5 70t196.5 26q230 0 230 -320v-698h-295v659q0 72 -72 72q-38 0 -101.5 -22t-113.5 -50v-659h-295zM250 1206q40 78 95 128t120 50q69 0 133 -43q71 -47 104 -47t51 20.5t27 63.5l140 -63q-27 -93 -83 -145t-135 -52q-76 0 -137 43 q-26 19 -34.5 25t-25.5 13t-34 7q-10 0 -19 -3t-17.5 -9.5t-15 -12t-15 -16.5t-12.5 -16.5t-12.5 -18.5t-10.5 -16z" />
<glyph unicode="&#xf2;" horiz-adv-x="1064" d="M82 383v231q0 83 21.5 151t70 127t140 92.5t218.5 33.5t218.5 -33.5t140.5 -92.5t70.5 -127.5t21.5 -150.5v-231q0 -65 -12.5 -121t-44.5 -109t-82 -90.5t-129.5 -60t-182.5 -22.5t-182.5 22.5t-129 60t-81.5 90.5t-44.5 109t-12.5 121zM248 1292l110 172 q132 -97 310 -209l-103 -155q-138 76 -317 192zM377 375q0 -148 155 -148q156 0 156 148v248q0 147 -156 147q-155 0 -155 -147v-248z" />
<glyph unicode="&#xf3;" horiz-adv-x="1064" d="M82 383v231q0 83 21.5 151t70 127t140 92.5t218.5 33.5t218.5 -33.5t140.5 -92.5t70.5 -127.5t21.5 -150.5v-231q0 -65 -12.5 -121t-44.5 -109t-82 -90.5t-129.5 -60t-182.5 -22.5t-182.5 22.5t-129 60t-81.5 90.5t-44.5 109t-12.5 121zM377 375q0 -148 155 -148 q156 0 156 148v248q0 147 -156 147q-155 0 -155 -147v-248zM393 1255q171 108 309 209l111 -172q-179 -116 -317 -192z" />
<glyph unicode="&#xf4;" horiz-adv-x="1064" d="M82 383v231q0 83 21.5 151t70 127t140 92.5t218.5 33.5t218.5 -33.5t140.5 -92.5t70.5 -127.5t21.5 -150.5v-231q0 -65 -12.5 -121t-44.5 -109t-82 -90.5t-129.5 -60t-182.5 -22.5t-182.5 22.5t-129 60t-81.5 90.5t-44.5 109t-12.5 121zM240 1208q156 121 292 240 q128 -112 293 -240l-90 -121q-106 64 -203 134q-101 -74 -202 -134zM377 375q0 -148 155 -148q156 0 156 148v248q0 147 -156 147q-155 0 -155 -147v-248z" />
<glyph unicode="&#xf5;" horiz-adv-x="1064" d="M82 383v231q0 83 21.5 151t70 127t140 92.5t218.5 33.5t218.5 -33.5t140.5 -92.5t70.5 -127.5t21.5 -150.5v-231q0 -65 -12.5 -121t-44.5 -109t-82 -90.5t-129.5 -60t-182.5 -22.5t-182.5 22.5t-129 60t-81.5 90.5t-44.5 109t-12.5 121zM199 1206q40 78 95 128t120 50 q69 0 133 -43q71 -47 104 -47t51 20.5t27 63.5l139 -63q-27 -94 -83 -145.5t-134 -51.5q-76 0 -137 43q-26 19 -34.5 25t-25.5 13t-34 7q-10 0 -19 -2.5t-18 -9.5t-15 -12t-15 -17t-12.5 -16t-13 -18.5t-10.5 -16.5zM377 375q0 -148 155 -148q156 0 156 148v248 q0 147 -156 147q-155 0 -155 -147v-248z" />
<glyph unicode="&#xf6;" horiz-adv-x="1064" d="M82 383v231q0 83 21.5 151t70 127t140 92.5t218.5 33.5t218.5 -33.5t140.5 -92.5t70.5 -127.5t21.5 -150.5v-231q0 -65 -12.5 -121t-44.5 -109t-82 -90.5t-129.5 -60t-182.5 -22.5t-182.5 22.5t-129 60t-81.5 90.5t-44.5 109t-12.5 121zM201 1135v241h233v-241h-233z M377 375q0 -148 155 -148q156 0 156 148v248q0 147 -156 147q-155 0 -155 -147v-248zM631 1135v241h233v-241h-233z" />
<glyph unicode="&#xf7;" horiz-adv-x="1073" d="M113 406v188h848v-188h-848zM399 0v279h275v-279h-275zM399 719v278h275v-278h-275z" />
<glyph unicode="&#xf8;" horiz-adv-x="1064" d="M82 383v231q0 83 21.5 151t70 127t140 92.5t218.5 33.5q159 0 261 -51l94 133l90 -64l-94 -135q100 -103 100 -287v-231q0 -65 -12.5 -121t-44.5 -109t-82 -90.5t-129.5 -60t-182.5 -22.5q-158 0 -260 51l-94 -133l-90 61l94 135q-100 103 -100 289zM377 371l260 372 q-42 27 -105 27q-155 0 -155 -147v-248v-4zM428 254q38 -27 104 -27q156 0 156 148v248z" />
<glyph unicode="&#xf9;" horiz-adv-x="1132" d="M123 299v698h295v-659q0 -72 71 -72q38 0 102 22t114 50v659h294v-997h-219l-30 76q-91 -44 -201 -70t-197 -26q-122 0 -175.5 83t-53.5 236zM285 1292l110 172q132 -97 310 -209l-103 -155q-138 76 -317 192z" />
<glyph unicode="&#xfa;" horiz-adv-x="1132" d="M123 299v698h295v-659q0 -72 71 -72q38 0 102 22t114 50v659h294v-997h-219l-30 76q-91 -44 -201 -70t-197 -26q-122 0 -175.5 83t-53.5 236zM420 1255q171 108 309 209l111 -172q-173 -113 -318 -192z" />
<glyph unicode="&#xfb;" horiz-adv-x="1132" d="M123 299v698h295v-659q0 -72 71 -72q38 0 102 22t114 50v659h294v-997h-219l-30 76q-91 -44 -201 -70t-197 -26q-122 0 -175.5 83t-53.5 236zM293 1208q165 128 293 240q128 -112 293 -240l-91 -121q-101 60 -202 134q-97 -70 -203 -134z" />
<glyph unicode="&#xfc;" horiz-adv-x="1132" d="M123 299v698h295v-659q0 -72 71 -72q38 0 102 22t114 50v659h294v-997h-219l-30 76q-91 -44 -201 -70t-197 -26q-122 0 -175.5 83t-53.5 236zM254 1135v241h233v-241h-233zM684 1135v241h234v-241h-234z" />
<glyph unicode="&#xfd;" horiz-adv-x="1013" d="M10 997h299l203 -706l203 706h299l-314 -997l-127 -403h-278l117 403h-95zM395 1255q178 112 310 209l110 -172q-179 -116 -317 -192z" />
<glyph unicode="&#xfe;" horiz-adv-x="1099" d="M133 -444v1849l295 41v-510q144 82 274 82q153 0 234.5 -93.5t81.5 -275.5v-301q0 -368 -336 -368q-135 0 -254 28v-411zM428 260q102 -24 188 -24q107 0 107 112v301q0 113 -107 113q-47 0 -99.5 -23.5t-88.5 -54.5v-424z" />
<glyph unicode="&#xff;" horiz-adv-x="1013" d="M10 997h299l203 -706l203 706h299l-314 -997l-127 -403h-278l117 403h-95zM180 1135v241h234v-241h-234zM610 1135v241h234v-241h-234z" />
<glyph unicode="&#x152;" horiz-adv-x="1826" d="M102 418v528q0 64 17.5 123t58 113.5t100.5 94t150.5 63.5t202.5 24h1093v-272h-550v-250h507v-273h-507v-297h550v-272h-1093q-112 0 -202.5 24t-150.5 63.5t-100.5 94t-58 113.5t-17.5 123zM410 444q0 -172 221 -172h235v820h-235q-221 0 -221 -172v-476z" />
<glyph unicode="&#x153;" horiz-adv-x="1601" d="M82 383v231q0 83 21.5 151t70 127t140 92.5t218.5 33.5q169 0 297 -82q119 82 287 82q404 0 404 -414v-209h-537v-28q0 -85 38.5 -115.5t141.5 -30.5q168 0 307 41l39 -223q-67 -25 -176 -42t-198 -17q-194 0 -304 81q-122 -81 -299 -81q-103 0 -182.5 22.5t-129 60 t-81.5 90.5t-44.5 109t-12.5 121zM377 375q0 -148 155 -148q150 0 156 140v268q-9 135 -156 135q-155 0 -155 -147v-248zM983 616h258v43q0 60 -26 93.5t-97 33.5q-135 0 -135 -127v-43z" />
<glyph unicode="&#x178;" horiz-adv-x="1155" d="M0 1364h322l256 -633l256 633h321l-424 -971v-393h-307v393zM254 1489v223h233v-223h-233zM668 1489v223h233v-223h-233z" />
<glyph unicode="&#x2c6;" horiz-adv-x="770" d="M92 1208q165 128 293 240q128 -112 293 -240l-90 -121q-106 64 -203 134q-97 -70 -203 -134z" />
<glyph unicode="&#x2dc;" horiz-adv-x="854" d="M92 1206q40 78 95 128t120 50q69 0 133 -43q71 -47 105 -47q33 0 51 20.5t27 63.5l139 -63q-27 -94 -83 -145.5t-134 -51.5q-76 0 -137 43q-25 18 -35 24.5t-26.5 13.5t-33.5 7q-10 0 -19 -3t-17.5 -9.5t-15 -12t-15 -16.5t-12.5 -16.5t-12.5 -18.5t-10.5 -16z" />
<glyph unicode="&#x2000;" horiz-adv-x="897" />
<glyph unicode="&#x2001;" horiz-adv-x="1794" />
<glyph unicode="&#x2002;" horiz-adv-x="897" />
<glyph unicode="&#x2003;" horiz-adv-x="1794" />
<glyph unicode="&#x2004;" horiz-adv-x="598" />
<glyph unicode="&#x2005;" horiz-adv-x="448" />
<glyph unicode="&#x2006;" horiz-adv-x="299" />
<glyph unicode="&#x2007;" horiz-adv-x="299" />
<glyph unicode="&#x2008;" horiz-adv-x="224" />
<glyph unicode="&#x2009;" horiz-adv-x="358" />
<glyph unicode="&#x200a;" horiz-adv-x="99" />
<glyph unicode="&#x2010;" horiz-adv-x="692" d="M82 451v245h528v-245h-528z" />
<glyph unicode="&#x2011;" horiz-adv-x="692" d="M82 451v245h528v-245h-528z" />
<glyph unicode="&#x2012;" horiz-adv-x="692" d="M82 451v245h528v-245h-528z" />
<glyph unicode="&#x2013;" horiz-adv-x="978" d="M102 451v245h775v-245h-775z" />
<glyph unicode="&#x2014;" horiz-adv-x="1286" d="M102 451v245h1082v-245h-1082z" />
<glyph unicode="&#x2018;" horiz-adv-x="548" d="M133 801v360l180 285l133 -76l-116 -229h98v-340h-295z" />
<glyph unicode="&#x2019;" horiz-adv-x="528" d="M102 836l117 229h-98v340h295v-361l-180 -284z" />
<glyph unicode="&#x201a;" horiz-adv-x="559" d="M113 -229l116 229h-98v340h295v-360l-180 -285z" />
<glyph unicode="&#x201c;" horiz-adv-x="989" d="M133 801v360l180 285l133 -76l-116 -229h98v-340h-295zM573 801v360l181 285l133 -76l-117 -229h98v-340h-295z" />
<glyph unicode="&#x201d;" horiz-adv-x="989" d="M102 836l117 229h-98v340h295v-361l-180 -284zM543 836l116 229h-98v340h295v-361l-180 -284z" />
<glyph unicode="&#x201e;" horiz-adv-x="999" d="M113 -229l116 229h-98v340h295v-360l-180 -285zM553 -229l117 229h-99v340h295v-360l-180 -285z" />
<glyph unicode="&#x2022;" horiz-adv-x="712" d="M82 662q0 114 80 194t194 80t194.5 -80t80.5 -194t-80.5 -194.5t-194.5 -80.5t-194 80.5t-80 194.5z" />
<glyph unicode="&#x2026;" horiz-adv-x="1683" d="M133 0v340h295v-340h-295zM694 0v340h295v-340h-295zM1255 0v340h295v-340h-295z" />
<glyph unicode="&#x202f;" horiz-adv-x="358" />
<glyph unicode="&#x2039;" horiz-adv-x="702" d="M92 500l260 395l197 -117l-182 -278l182 -279l-197 -117z" />
<glyph unicode="&#x203a;" horiz-adv-x="702" d="M154 221l182 279l-182 278l196 117l260 -395l-260 -396z" />
<glyph unicode="&#x205f;" horiz-adv-x="448" />
<glyph unicode="&#x20ac;" horiz-adv-x="1083" d="M31 438v156h162v135h-162v156h162v41q0 196 123.5 306.5t373.5 110.5q194 0 322 -34l-37 -269q-149 25 -285 25q-187 0 -190 -180h358v-156h-358v-135h358v-156h-358q3 -180 190 -180q136 0 285 25l37 -269q-142 -34 -322 -34q-250 0 -373.5 110.5t-123.5 306.5v41h-162z " />
<glyph unicode="&#x2122;" horiz-adv-x="925" d="M61 1274v90h320v-90h-111v-328h-100v328h-109zM432 946l17 418h98l96 -252l94 252h101l16 -418h-96l-4 223l-66 -170h-92l-66 168l-4 -221h-94z" />
<glyph unicode="&#x25fc;" horiz-adv-x="993" d="M0 0v993h993v-993h-993z" />
</font>
</defs>
</svg>
