<?xml version="1.0" standalone="no"?>
<!DOCTYPE svg PUBLIC "-//W3C//DTD SVG 1.1//EN" "http://www.w3.org/Graphics/SVG/1.1/DTD/svg11.dtd" >
<svg xmlns="http://www.w3.org/2000/svg">
<metadata>Generated by IcoMoon</metadata>
<defs>
<font id="icons" horiz-adv-x="1024">
<font-face units-per-em="1024" ascent="960" descent="-64" />
<missing-glyph horiz-adv-x="1024" />
<glyph unicode="&#x20;" horiz-adv-x="512" d="" />
<glyph unicode="&#xe600;" glyph-name="icon_engine" horiz-adv-x="1372" d="M806.912 824.83h83.968c14.336 0 26.624 12.288 26.624 26.624v83.968c0 14.336-12.288 26.624-26.624 26.624h-354.304c-14.336 0-26.624-12.288-26.624-26.624v-83.968c0-14.336 12.288-26.624 26.624-26.624h83.968v-57.344h186.368v57.344zM1323.008 607.742h-108.544c-14.336 0-26.624-12.288-26.624-26.624v-94.208h-71.68v200.704c0 14.336-12.288 26.624-26.624 26.624h-589.824c-8.192 0-16.384-4.096-20.48-10.24l-122.88-143.36h-135.168c-14.336 0-26.624-12.288-26.624-26.624v-114.688h-69.632v83.968c0 14.336-12.288 26.624-26.624 26.624h-81.92c-14.336 0-26.624-12.288-26.624-26.624v-356.352c0-14.336 12.288-26.624 26.624-26.624h81.92c14.336 0 26.624 12.288 26.624 26.624v86.016h69.632v-114.688c0-14.336 12.288-26.624 26.624-26.624h135.168l122.88-143.36c6.144-6.144 12.288-10.24 20.48-10.24h403.456c8.192 0 14.336 2.048 20.48 8.192l186.368 196.608c4.096 4.096 8.192 12.288 8.192 18.432v59.392h69.632v-94.208c0-14.336 12.288-26.624 26.624-26.624h108.544c14.336 0 26.624 12.288 26.624 26.624v454.656c0 14.336-12.288 26.624-26.624 26.624z" />
<glyph unicode="&#xe601;" glyph-name="icon_speed" horiz-adv-x="1208" d="M88.064 79.358v0c14.336-18.432 30.72-22.528 51.2-10.24l131.072 75.776c40.96 24.576 12.288 100.352-40.96 69.632v0l-51.2-30.72c-47.104 100.352-47.104 190.464-43.008 239.616l59.392-10.24c43.008-8.192 73.728 61.44 14.336 79.872l-59.392 10.24c20.48 79.872 63.488 153.6 120.832 210.944l38.912-47.104c30.72-36.864 98.304 8.192 61.44 51.2v0l-38.912 47.104c65.536 47.104 143.36 75.776 227.328 83.968v-63.488c0-53.248 79.872-53.248 79.872 0v0 61.44c198.656-16.384 360.448-157.696 409.6-344.064l-59.392-10.24c-55.296-12.288-32.768-88.064 14.336-79.872v0l59.392 10.24c4.096-59.392 2.048-145.408-43.008-239.616l-51.2 30.72c-49.152 28.672-83.968-45.056-40.96-69.632l131.072-75.776c16.384-10.24 40.96-8.192 55.296 14.336 0 0 0 0 0 0 51.2 88.064 81.92 190.464 81.92 301.056 0 327.68-266.24 595.968-595.968 595.968-327.68 0-595.968-266.24-595.968-595.968 0-112.64 30.72-217.088 83.968-305.152zM874.496 663.038c18.432 28.672-18.432 63.488-45.056 38.912l-221.184-208.896c-18.432 2.048-114.688-6.144-114.688-104.448 0-57.344 47.104-104.448 104.448-104.448 81.92 0 114.688 77.824 102.4 129.024l174.080 249.856zM385.024-45.57h430.080c10.24 0 16.384 8.192 16.384 16.384v102.4c0 10.24-8.192 16.384-16.384 16.384h-430.080c-10.24 0-16.384-8.192-16.384-16.384v-102.4c0-8.192 6.144-16.384 16.384-16.384z" />
<glyph unicode="&#xe602;" glyph-name="icon_ship" horiz-adv-x="1925" d="M1923.072 183.806c-10.24 22.528-34.816 30.72-57.344 20.48-202.752-92.16-348.16-145.408-514.048-159.744 61.44 45.056 176.128 141.312 260.096 284.672 122.88 206.848 92.16 362.496 92.16 362.496l-1589.248-430.080 118.784-149.504c-129.024-22.528-206.848-55.296-215.040-59.392-22.528-10.24-32.768-34.816-22.528-57.344s34.816-32.768 57.344-22.528c4.096 2.048 313.344 133.12 739.328 40.96 188.416-40.96 335.872-61.44 466.944-61.44 221.184 0 393.216 57.344 643.072 172.032 20.48 12.288 30.72 36.864 20.48 59.392zM815.104 497.15v233.472l-206.848-83.968v-204.8zM575.488 433.662v200.704l-159.744-65.536v-178.176zM382.976 556.542l-22.528-10.24v92.16l534.528 258.048v-133.12l-47.104-18.432v-237.568l221.184 59.392v266.24l-110.592-45.056v126.976h249.856l2.048-75.776h-108.544v-266.24l348.16 94.208-6.144 172.032h-169.984l-4.096 139.264h-350.208l-198.656-96.256h-333.824l4.096-157.696-96.256-45.056v-159.744l-69.632-28.672v-153.6l157.696 43.008v176.128zM452.608 818.686h133.12l-131.072-63.488-2.048 63.488z" />
<glyph unicode="&#xe603;" glyph-name="icon_settings" d="M915.456 527.87l108.544 63.488-147.456 251.904-112.64-63.488c-30.72 26.624-67.584 47.104-108.544 61.44v129.024h-286.72v-129.024c-40.96-14.336-77.824-36.864-110.592-61.44l-110.592 63.488-147.456-253.952 108.544-63.488c-8.192-49.152-8.192-83.968-2.048-126.976l-106.496-61.44 147.456-253.952 104.448 59.392c34.816-28.672 75.776-51.2 118.784-67.584v-129.024h286.72v129.024c43.008 16.384 83.968 38.912 118.784 67.584l104.448-59.392 143.36 253.952-106.496 61.44c6.144 45.056 6.144 79.872-2.048 129.024zM512 273.918c-102.4 0-184.32 81.92-184.32 184.32s81.92 184.32 184.32 184.32 184.32-81.92 184.32-184.32-81.92-184.32-184.32-184.32z" />
<glyph unicode="&#xe604;" glyph-name="icon_search" d="M1009.664 144.894c-86.016 71.68-174.080 145.408-264.192 221.184 90.112 153.6 71.68 354.304-61.44 487.424-75.776 75.776-176.128 116.736-282.624 116.736-108.544 0-208.896-40.96-284.672-116.736-155.648-155.648-155.648-409.6 0-567.296 75.776-75.776 176.128-116.736 282.624-116.736 73.728 0 143.36 20.48 204.8 55.296 75.776-90.112 149.504-178.176 221.184-264.192 10.24-12.288 28.672-18.432 43.008-12.288 67.584 32.768 120.832 86.016 153.6 153.6 6.144 14.336 0 32.768-12.288 43.008zM210.944 380.414c-104.448 104.448-104.448 272.384 0 376.832 51.2 51.2 116.736 77.824 188.416 77.824s139.264-28.672 188.416-77.824c104.448-104.448 104.448-274.432 0-376.832-51.2-51.2-116.736-77.824-188.416-77.824-69.632 0-137.216 28.672-188.416 77.824z" />
<glyph unicode="&#xe605;" glyph-name="icon_rpm" horiz-adv-x="983" d="M649.216 873.982c55.296-18.432 108.544-43.008 151.552-75.776l67.584 59.392c-61.44 45.056-131.072 69.632-198.656 88.064-79.872 20.48-161.792 30.72-245.76 22.528-161.792-12.288-317.44-92.16-423.936-210.944l14.336-14.336c112.64 106.496 264.192 165.888 413.696 167.936 75.776 2.048 149.504-12.288 221.184-36.864zM411.648 736.766c-98.304-18.432-188.416-71.68-249.856-145.408l12.288-12.288c67.584 61.44 155.648 96.256 241.664 100.352 43.008 2.048 88.064-4.096 129.024-14.336 24.576-6.144 47.104-14.336 67.584-24.576l69.632 61.44c-40.96 24.576-83.968 32.768-124.928 38.912-45.056 4.096-94.208 4.096-145.408-4.096zM604.16 333.31l378.88 434.176-53.248 53.248-430.080-380.928c-32.768 12.288-69.632 14.336-106.496 6.144-94.208-24.576-149.504-122.88-124.928-217.088 2.048-6.144 4.096-12.288 8.192-20.48l-161.792-143.36 116.736-116.736 141.312 161.792c34.816-14.336 73.728-18.432 112.64-8.192 94.208 26.624 149.504 122.88 124.928 217.088-2.048 4.096-4.096 10.24-6.144 14.336zM456.704 206.334c-36.864-10.24-73.728 12.288-83.968 49.152s12.288 73.728 49.152 83.968c36.864 10.24 73.728-12.288 83.968-49.152 8.192-36.864-14.336-73.728-49.152-83.968z" />
<glyph unicode="&#xe606;" glyph-name="icon_overview" d="M960.512-74.242h-321.536c-34.816 0-63.488 28.672-63.488 63.488v321.536c0 34.816 28.672 63.488 63.488 63.488h319.488c34.816 0 63.488-28.672 63.488-63.488v-319.488c2.048-36.864-26.624-65.536-61.44-65.536zM960.512 501.246h-321.536c-34.816 0-63.488 28.672-63.488 63.488v321.536c0 34.816 28.672 63.488 63.488 63.488h319.488c36.864 0 65.536-28.672 65.536-63.488v-319.488c0-36.864-28.672-65.536-63.488-65.536zM385.024-74.242h-321.536c-34.816 0-63.488 28.672-63.488 63.488v321.536c0 34.816 28.672 63.488 63.488 63.488h319.488c34.816 0 63.488-28.672 63.488-63.488v-319.488c2.048-36.864-26.624-65.536-61.44-65.536zM385.024 501.246h-321.536c-34.816 0-63.488 28.672-63.488 63.488v321.536c0 34.816 28.672 63.488 63.488 63.488h319.488c34.816 0 63.488-28.672 63.488-63.488v-319.488c2.048-36.864-26.624-65.536-61.44-65.536z" />
<glyph unicode="&#xe607;" glyph-name="icon_notes" horiz-adv-x="881" d="M559.104 611.838h-415.744c-18.432 0-32.768-14.336-32.768-32.768s14.336-32.768 32.768-32.768h415.744c18.432 0 32.768 14.336 32.768 32.768s-14.336 32.768-32.768 32.768zM591.872 445.95c0 18.432-14.336 32.768-32.768 32.768h-415.744c-18.432 0-32.768-14.336-32.768-32.768s14.336-32.768 32.768-32.768h415.744c18.432-2.048 32.768 14.336 32.768 32.768zM143.36 345.598c-18.432 0-32.768-14.336-32.768-32.768s14.336-32.768 32.768-32.768h188.416c18.432 0 32.768 14.336 32.768 32.768s-14.336 32.768-32.768 32.768h-188.416zM63.488 103.934v595.968c0 30.72 24.576 57.344 57.344 57.344h51.2l-2.048 51.2c0 6.144 0 12.288 2.048 18.432h-108.544c-38.912 0-69.632-30.72-69.632-69.632v-708.608c0-38.912 30.72-69.632 69.632-69.632h204.8l14.336 67.584h-161.792c-30.72 0-57.344 26.624-57.344 57.344zM528.384 757.246h51.2c30.72 0 57.344-24.576 57.344-57.344v-221.184l71.68 71.68v208.896c-2.048 36.864-32.768 67.584-71.68 67.584h-108.544c2.048-6.144 2.048-12.288 2.048-18.432l-2.048-51.2zM573.44-20.994h63.488c38.912 0 69.632 30.72 69.632 69.632v73.728l-137.216-137.216 4.096-6.144zM735.232 495.102l-380.928-380.928-32.768-163.84 163.84 32.768 380.928 380.928-131.072 131.072zM376.832 5.63l14.336 71.68 57.344-57.344-71.68-14.336zM237.568 726.526h223.232c10.24 0 18.432 8.192 18.432 16.384l2.048 67.584c0 10.24-6.144 16.384-16.384 16.384h-38.912c-18.432 6.144-36.864 18.432-26.624 36.864 28.672 61.44 2.048 110.592-49.152 110.592s-77.824-49.152-49.152-110.592c8.192-18.432-8.192-30.72-26.624-36.864h-38.912c-10.24 0-16.384-8.192-16.384-16.384l2.048-67.584c0-8.192 8.192-16.384 16.384-16.384zM350.208 935.422c12.288 0 22.528-10.24 22.528-22.528s-10.24-22.528-22.528-22.528c-12.288 0-22.528 10.24-22.528 22.528s10.24 22.528 22.528 22.528z" />
<glyph unicode="&#xe608;" glyph-name="icon_logout" horiz-adv-x="1085" d="M714.752 34.302h-634.88v559.104h149.504c10.24 34.816 24.576 65.536 40.96 96.256h-286.72v-751.616h829.44v274.432l-96.256-96.256v-81.92zM1067.008 607.742l-352.256 354.304v-196.608h-106.496c-153.6 0-280.576-124.928-280.576-280.576v-217.088c57.344 108.544 157.696 190.464 286.72 190.464 0 0 0 0 100.352 0v-202.752l352.256 352.256z" />
<glyph unicode="&#xe609;" glyph-name="icon_map" d="M26.624 603.646c73.728 241.664 313.344 389.12 559.104 352.256-36.864-28.672-65.536-65.536-81.92-112.64-18.432-51.2-20.48-104.448-4.096-159.744 10.24-38.912 28.672-77.824 51.2-118.784 12.288-20.48 26.624-40.96 40.96-61.44-38.912 0-79.872-2.048-118.784-2.048-4.096 0-6.144-2.048-10.24-4.096-10.24-6.144-20.48-12.288-32.768-18.432-16.384-8.192-26.624-20.48-34.816-34.816-24.576-40.96-45.056-83.968-59.392-129.024-6.144-20.48-18.432-40.96-26.624-61.44-2.048-2.048-2.048-4.096-4.096-6.144-16.384-22.528-30.72-22.528-45.056 4.096-16.384 32.768-26.624 67.584-34.816 102.4-10.24 40.96-16.384 81.92-12.288 124.928 2.048 20.48 8.192 40.96 20.48 57.344 8.192 10.24 14.336 20.48 22.528 30.72 8.192 12.288 8.192 26.624-2.048 38.912s-22.528 24.576-32.768 38.912c-8.192 10.24-14.336 20.48-18.432 32.768-8.192 16.384-8.192 34.816-2.048 51.2 4.096 12.288 8.192 24.576 12.288 36.864-2.048 0-2.048 2.048-4.096 2.048-10.24-12.288-22.528-24.576-32.768-36.864-137.216-167.936-131.072-411.648 16.384-571.392 79.872-86.016 180.224-133.12 299.008-141.312 81.92-4.096 159.744 14.336 233.472 53.248 2.048 2.048 6.144 6.144 6.144 8.192-2.048 40.96-4.096 79.872-10.24 118.784-2.048 18.432-16.384 36.864-24.576 55.296-2.048 4.096-4.096 6.144-6.144 10.24-6.144 12.288-2.048 20.48 10.24 22.528 16.384 4.096 30.72 6.144 47.104 6.144 24.576 2.048 47.104 4.096 69.632 14.336 18.432 8.192 40.96 12.288 61.44 18.432 8.192 2.048 12.288-4.096 12.288-10.24 0-16.384 2.048-32.768 0-47.104 0-12.288-4.096-24.576-4.096-38.912 57.344 61.44 83.968 268.288 45.056 342.016 18.432 32.768 32.768 63.488 43.008 94.208 51.2-108.544 63.488-237.568 24.576-364.544-83.968-268.288-368.64-415.744-634.88-333.824-266.24 83.968-421.888 366.592-337.92 636.928zM929.792 572.926c-2.048-14.336-2.048-28.672-6.144-43.008-2.048-6.144-4.096-14.336-6.144-20.48-8.192-14.336-20.48-18.432-32.768-10.24 0 0 0 0 0 0 16.384 22.528 28.672 43.008 43.008 65.536 0 4.096 0 6.144 2.048 8.192zM946.176 703.998c24.576 96.256-20.48 198.656-108.544 243.712-30.72 14.336-61.44 22.528-94.208 22.528-88.064 0-167.936-55.296-198.656-139.264-16.384-45.056-16.384-90.112-4.096-135.168 10.24-38.912 28.672-73.728 49.152-108.544 34.816-59.392 77.824-114.688 124.928-165.888 8.192-8.192 18.432-16.384 30.72-14.336 10.24 0 18.432 4.096 24.576 12.288 14.336 16.384 28.672 30.72 43.008 47.104 30.72 38.912 61.44 77.824 86.016 120.832 18.432 36.864 34.816 75.776 47.104 116.736zM882.688 759.294c0-77.824-63.488-141.312-141.312-141.312s-141.312 63.488-141.312 141.312c0 77.824 63.488 141.312 141.312 141.312s141.312-63.488 141.312-141.312zM741.376 687.614c-38.912 0-69.632 30.72-71.68 69.632 0 38.912 30.72 71.68 69.632 71.68s69.632-30.72 71.68-69.632c0-38.912-30.72-71.68-69.632-71.68z" />
<glyph unicode="&#xe60a;" glyph-name="icon_list" horiz-adv-x="1290" d="M1218.56-74.242h-808.96c-36.864 0-67.584 30.72-67.584 67.584v67.584c0 36.864 30.72 67.584 67.584 67.584h808.96c36.864 0 67.584-30.72 67.584-67.584v-67.584c0-36.864-30.72-67.584-67.584-67.584zM1218.56 335.358h-808.96c-36.864 0-67.584 30.72-67.584 67.584v67.584c0 36.864 30.72 67.584 67.584 67.584h808.96c36.864 0 67.584-30.72 67.584-67.584v-67.584c0-36.864-30.72-67.584-67.584-67.584zM1218.56 744.958h-808.96c-36.864 0-67.584 30.72-67.584 67.584v69.632c0 36.864 30.72 67.584 67.584 67.584h808.96c36.864 0 67.584-30.72 67.584-67.584v-67.584c0-38.912-30.72-69.632-67.584-69.632zM139.264-74.242h-67.584c-36.864 0-67.584 30.72-67.584 67.584v67.584c0 36.864 30.72 67.584 67.584 67.584h67.584c36.864 0 67.584-30.72 67.584-67.584v-67.584c0-36.864-30.72-67.584-67.584-67.584zM139.264 335.358h-67.584c-36.864 0-67.584 30.72-67.584 67.584v67.584c0 36.864 30.72 67.584 67.584 67.584h67.584c36.864 0 67.584-30.72 67.584-67.584v-67.584c0-36.864-30.72-67.584-67.584-67.584zM139.264 744.958h-67.584c-36.864 0-67.584 30.72-67.584 67.584v69.632c0 36.864 30.72 67.584 67.584 67.584h67.584c36.864 0 67.584-30.72 67.584-67.584v-67.584c0-38.912-30.72-69.632-67.584-69.632z" />
<glyph unicode="&#xe60b;" glyph-name="icon_kwh" horiz-adv-x="778" d="M688.128 622.078c8.192 8.192 6.144 14.336-4.096 14.336h-83.968c-10.24 0-12.288-6.144-4.096-14.336l12.288-12.288c8.192-8.192 6.144-14.336-4.096-14.336h-6.144c-10.24 0-12.288-6.144-4.096-14.336l12.288-12.288c8.192-8.192 6.144-14.336-4.096-14.336h-6.144c-10.24 0-12.288-6.144-4.096-14.336l30.72-28.672c8.192-8.192 22.528-8.192 28.672 0l30.72 28.672c8.192 8.192 6.144 14.336-4.096 14.336h-6.144c-10.24 0-12.288 6.144-4.096 14.336l12.288 12.288c8.192 8.192 6.144 14.336-4.096 14.336h-6.144c-10.24 0-12.288 6.144-4.096 14.336l22.528 12.288zM100.352 556.542h-6.144c-10.24 0-12.288-6.144-4.096-14.336l30.72-28.672c8.192-8.192 20.48-8.192 28.672 0l30.72 28.672c8.192 8.192 6.144 14.336-4.096 14.336h-4.096c-10.24 0-12.288 6.144-4.096 14.336l12.288 12.288c8.192 8.192 6.144 14.336-4.096 14.336h-4.096c-10.24 0-12.288 6.144-4.096 14.336l12.288 10.24c8.192 8.192 6.144 14.336-4.096 14.336h-81.92c-10.24 0-12.288-6.144-4.096-14.336l12.288-12.288c8.192-8.192 6.144-14.336-4.096-14.336h-4.096c-10.24 0-12.288-6.144-4.096-14.336l12.288-10.24c8.192-8.192 8.192-14.336-2.048-14.336zM739.328 298.494c8.192 8.192 6.144 14.336-4.096 14.336h-83.968c-10.24 0-12.288-6.144-4.096-14.336l12.288-12.288c8.192-8.192 6.144-14.336-4.096-14.336h-6.144c-10.24 0-12.288-6.144-4.096-14.336l12.288-12.288c8.192-8.192 6.144-14.336-4.096-14.336h-6.144c-10.24 0-12.288-6.144-4.096-14.336l30.72-28.672c8.192-8.192 20.48-8.192 28.672 0l30.72 28.672c8.192 8.192 6.144 14.336-4.096 14.336h-6.144c-10.24 0-12.288 6.144-4.096 14.336l12.288 12.288c8.192 8.192 6.144 14.336-4.096 14.336h-6.144c-10.24 0-12.288 6.144-4.096 14.336l22.528 12.288zM49.152 235.006h-6.144c-10.24 0-12.288-6.144-4.096-14.336l30.72-28.672c8.192-8.192 20.48-8.192 28.672 0l30.72 28.672c8.192 8.192 6.144 14.336-4.096 14.336h-4.096c-10.24 0-12.288 6.144-4.096 14.336l12.288 12.288c8.192 8.192 6.144 14.336-4.096 14.336h-4.096c-10.24 0-12.288 6.144-4.096 14.336l12.288 12.288c8.192 8.192 6.144 14.336-4.096 14.336h-81.92c-10.24 0-12.288-6.144-4.096-14.336l12.288-12.288c8.192-8.192 6.144-14.336-4.096-14.336h-4.096c-10.24 0-12.288-6.144-4.096-14.336l12.288-12.288c8.192-8.192 8.192-14.336-2.048-14.336zM747.52 44.542h-137.216l-81.92 296.96h204.8c12.288 0 22.528 8.192 24.576 20.48s-2.048 24.576-14.336 28.672l-223.232 110.592v157.696h161.792c12.288 0 22.528 8.192 24.576 18.432 4.096 10.24-2.048 22.528-10.24 28.672 0 0-198.656 124.928-198.656 124.928l-86.016 124.928c-12.288 24.576-32.768 24.576-45.056 0l-86.016-124.928-196.608-124.928c-10.24-6.144-14.336-18.432-10.24-28.672s14.336-18.432 24.576-18.432h159.744v-157.696l-223.232-110.592c-10.24-6.144-16.384-18.432-14.336-28.672 2.048-12.288 12.288-20.48 24.576-20.48h204.8l-81.92-296.96h-137.216c-14.336 0-24.576-12.288-24.576-24.576v-40.96c0-14.336 12.288-24.576 24.576-24.576h714.752c14.336 0 24.576 12.288 24.576 24.576v40.96c2.048 12.288-10.24 24.576-22.528 24.576zM520.192 757.246l71.68-45.056h-71.68v45.056zM520.192 441.854l100.352-49.152h-100.352v49.152zM534.528 108.030l-110.592 137.216 61.44 67.584 49.152-204.8zM389.12 282.11l-53.248 57.344h106.496l-53.248-57.344zM434.176 505.342h-90.112l45.056 40.96 45.056-40.96zM346.112 658.942h88.064l-43.008-40.96-45.056 40.96zM428.032 583.166l43.008 38.912v-77.824l-43.008 38.912zM389.12 902.654l55.296-79.872h-108.544l53.248 79.872zM307.2 771.582h163.84v-61.44h-163.84v61.44zM307.2 622.078l43.008-38.912-43.008-38.912v77.824zM307.2 454.142h163.84v-61.44h-163.84v61.44zM188.416 710.142l71.68 45.056v-45.056h-71.68zM157.696 392.702l100.352 49.152v-49.152h-100.352zM292.864 310.782l61.44-67.584-110.592-137.216 49.152 204.8zM389.12 206.334l118.784-161.792h-237.568l118.784 161.792z" />
<glyph unicode="&#xe60c;" glyph-name="icon_fuel" horiz-adv-x="963" d="M958.464 706.046c0 28.672-22.528 51.2-51.2 51.2v102.4c28.672 0 51.2 22.528 51.2 51.2s-22.528 51.2-51.2 51.2h-851.968c-28.672 0-51.2-22.528-51.2-51.2s22.528-51.2 51.2-51.2v-102.4c-28.672 0-51.2-22.528-51.2-51.2s22.528-51.2 51.2-51.2v-409.6c-28.672 0-51.2-22.528-51.2-51.2s22.528-51.2 51.2-51.2v-102.4c-28.672 0-51.2-22.528-51.2-51.2s22.528-51.2 51.2-51.2h849.92c28.672 0 51.2 22.528 51.2 51.2s-22.528 51.2-51.2 51.2v102.4c28.672 0 51.2 22.528 51.2 51.2s-22.528 51.2-51.2 51.2v409.6c28.672 0 53.248 22.528 53.248 51.2zM73.728-14.85c0 26.624 20.48 47.104 45.056 51.2v104.448h157.696v-104.448h10.24c28.672 0 51.2-22.528 51.2-51.2h-264.192zM73.728 198.142c0 26.624 20.48 47.104 45.056 51.2v399.36h157.696v-399.36h10.24c28.672 0 51.2-22.528 51.2-51.2h-264.192zM73.728 701.95c0 26.624 20.48 47.104 45.056 51.2v104.448h157.696v-104.448h10.24c28.672 0 51.2-22.528 51.2-51.2h-264.192z" />
<glyph unicode="&#xe60d;" glyph-name="icon_emission" horiz-adv-x="1536" d="M1304.576 531.966c2.048 20.48 4.096 38.912 4.096 59.392-2.048 215.040-178.176 389.12-393.216 387.072-167.936-2.048-313.344-108.544-366.592-262.144-26.624 8.192-53.248 12.288-79.872 12.288-124.928 0-229.376-88.064-256-204.8-124.928-34.816-212.992-147.456-212.992-280.576 2.048-159.744 131.072-288.768 292.864-288.768h942.080c157.696 2.048 288.768 137.216 286.72 299.008 0 133.12-94.208 245.76-217.088 278.528z" />
<glyph unicode="&#xe60e;" glyph-name="icon_distance" horiz-adv-x="1085" d="M538.624 42.494c-186.368 14.336-337.92 149.504-378.88 325.632l-86.016-32.768c55.296-221.184 258.048-387.072 495.616-387.072 96.256 0 186.368 26.624 264.192 73.728-36.864-6.144-73.728-10.24-110.592-10.24-61.44 0-124.928 10.24-184.32 30.72zM1081.344 460.286c0 282.624-229.376 512-512 512-120.832 0-231.424-43.008-319.488-112.64l73.728-59.392c28.672 20.48 61.44 38.912 94.208 51.2-22.528-22.528-43.008-47.104-61.44-77.824l43.008-34.816c36.864 65.536 88.064 110.592 143.36 120.832v-520.192c-10.24 0-20.48 2.048-28.672 2.048 36.864-26.624 73.728-45.056 114.688-57.344 61.44 4.096 120.832 16.384 172.032 32.768-4.096-26.624-10.24-51.2-18.432-75.776 18.432-2.048 38.912-2.048 57.344-2.048 10.24 32.768 16.384 65.536 20.48 100.352 51.2 22.528 96.256 53.248 129.024 86.016-6.144-77.824-34.816-149.504-77.824-210.944-112.64-88.064-395.264 12.288-520.192 163.84-36.864 43.008-63.488 90.112-83.968 133.12l161.792 61.44-389.12 319.488-79.872-497.664 167.936 63.488c24.576-57.344 61.44-120.832 112.64-178.176 79.872-90.112 229.376-212.992 442.368-212.992 96.256 0 161.792 8.192 223.232 45.056v0c83.968 92.16 135.168 212.992 135.168 348.16zM598.016 859.646c14.336-2.048 26.624-8.192 40.96-14.336 0 0 0 0 0 0 6.144-4.096 12.288-6.144 18.432-12.288 0 0 0 0 0 0 47.104-30.72 86.016-88.064 112.64-157.696-45.056-26.624-106.496-45.056-174.080-47.104v231.424zM813.056 716.286c0 2.048-2.048 4.096-2.048 6.144-2.048 4.096-4.096 8.192-6.144 12.288 0 2.048-2.048 4.096-2.048 6.144-2.048 4.096-4.096 8.192-6.144 12.288 0 2.048-2.048 4.096-2.048 6.144-2.048 4.096-4.096 8.192-6.144 10.24 0 2.048-2.048 4.096-2.048 4.096-2.048 4.096-4.096 8.192-6.144 10.24 0 2.048-2.048 2.048-2.048 4.096-2.048 4.096-4.096 8.192-6.144 10.24 0 0 0 2.048-2.048 2.048-8.192 12.288-16.384 22.528-26.624 32.768-2.048 2.048-2.048 4.096-4.096 4.096-2.048 2.048-4.096 4.096-6.144 6.144-4.096 2.048-6.144 4.096-8.192 4.096-2.048 2.048-2.048 2.048-4.096 4.096 45.056-18.432 88.064-43.008 124.928-75.776 0-24.576-10.24-45.056-30.72-65.536 0 2.048 0 4.096-2.048 6.144zM598.016 339.454v215.040c73.728 4.096 141.312 20.48 194.56 49.152 8.192-36.864 14.336-73.728 16.384-114.688v0c0-14.336 2.048-30.72 2.048-47.104 0-20.48-2.048-43.008-4.096-63.488-59.392-22.528-133.12-36.864-208.896-38.912zM864.256 404.99c0 12.288 2.048 24.576 2.048 36.864 0 63.488-8.192 124.928-20.48 180.224 0 0 0 2.048 0 2.048 0 4.096-2.048 6.144-2.048 10.24 28.672 22.528 51.2 49.152 63.488 77.824 43.008-55.296 71.68-122.88 79.872-196.608-22.528-40.96-65.536-79.872-122.88-110.592z" />
<glyph unicode="&#xe60f;" glyph-name="icon_crew" horiz-adv-x="1044" d="M829.44 112.126c10.24 16.384 18.432 32.768 26.624 49.152 8.192 20.48 0 43.008-20.48 53.248-20.48 8.192-43.008 0-53.248-20.48-49.152-110.592-159.744-182.272-280.576-182.272s-231.424 71.68-280.576 182.272c-8.192 20.48-32.768 28.672-53.248 20.48s-28.672-32.768-20.48-53.248c8.192-16.384 16.384-32.768 26.624-49.152-63.488-49.152-114.688-112.64-149.504-186.368h950.272c-30.72 73.728-81.92 137.216-145.408 186.368zM436.224 202.238c-10.24 0-20.48-8.192-20.48-20.48s8.192-20.48 20.48-20.48h135.168c10.24 0 20.48 8.192 20.48 20.48s-8.192 20.48-20.48 20.48h-135.168zM919.552 486.91v18.432c-8.192 149.504-94.208 280.576-219.136 346.112v-149.504c0-16.384-12.288-28.672-28.672-28.672s-28.672 12.288-28.672 28.672v204.8c-79.872 57.344-186.368 57.344-264.192 0v-204.8c0-16.384-12.288-28.672-28.672-28.672s-28.672 12.288-28.672 28.672v153.6c-135.168-65.536-225.28-198.656-233.472-350.208v-18.432c-55.296-10.24-98.304-57.344-98.304-116.736h1028.096c0 57.344-43.008 106.496-98.304 116.736z" />
<glyph unicode="&#xe610;" glyph-name="icon_companies" horiz-adv-x="1126" d="M1024-8.706v786.432h-440.32v196.608h-512v-985.088h-77.824v-38.912h1107.968v38.912h-77.824zM786.432 699.902h157.696v-157.696h-157.696v157.696zM786.432 503.294h157.696v-157.696h-157.696v157.696zM786.432 306.686h157.696v-157.696h-157.696v157.696zM589.824 699.902h157.696v-157.696h-157.696v157.696zM589.824 503.294h157.696v-157.696h-157.696v157.696zM589.824 306.686h157.696v-157.696h-157.696v157.696zM348.16 896.51h157.696v-157.696h-157.696v157.696zM348.16 699.902h157.696v-157.696h-157.696v157.696zM348.16 503.294h157.696v-157.696h-157.696v157.696zM348.16 306.686h157.696v-157.696h-157.696v157.696zM151.552 896.51h157.696v-157.696h-157.696v157.696zM151.552 699.902h157.696v-157.696h-157.696v157.696zM151.552 503.294h157.696v-157.696h-157.696v157.696zM151.552 306.686h157.696v-157.696h-157.696v157.696zM268.288-8.706v118.784h118.784v-118.784h-118.784zM708.608-8.706v118.784h118.784v-118.784h-118.784z" />
<glyph unicode="&#xe611;" glyph-name="icon_chart" horiz-adv-x="1679" d="M1464.32 540.158c-30.72 0-59.392 6.144-86.016 18.432l-167.936-165.888c28.672-34.816 45.056-77.824 45.056-126.976 0-112.64-92.16-204.8-208.896-204.8s-206.848 92.16-206.848 206.848c0 12.288 2.048 24.576 4.096 34.816l-81.92 79.872c-34.816-28.672-81.92-47.104-131.072-47.104-38.912 0-75.776 12.288-108.544 30.72l-131.072-129.024c18.432-30.72 30.72-67.584 30.72-106.496 0-112.64-92.16-204.8-208.896-204.8s-204.8 92.16-204.8 204.8c0 112.64 92.16 204.8 208.896 204.8 24.576 0 47.104-4.096 69.632-12.288l151.552 149.504c-8.192 20.48-12.288 43.008-12.288 67.584 0 112.64 92.16 204.8 208.896 204.8s204.8-92.16 204.8-204.8c0-12.288-2.048-22.528-4.096-34.816l81.92-79.872c34.816 28.672 79.872 47.104 131.072 47.104 14.336 0 28.672-2.048 43.008-4.096l188.416 186.368c-14.336 28.672-22.528 59.392-22.528 92.16 0 112.64 92.16 204.8 208.896 204.8s208.896-92.16 208.896-204.8c-4.096-114.688-96.256-206.848-210.944-206.848zM215.040 198.142c-38.912 0-69.632-30.72-69.632-67.584s30.72-67.584 69.632-67.584 69.632 30.72 69.632 67.584c0 36.864-30.72 67.584-69.632 67.584zM630.784 607.742c-38.912 0-69.632-30.72-69.632-67.584s30.72-67.584 69.632-67.584 69.632 30.72 69.632 67.584-30.72 67.584-69.632 67.584zM1048.576 335.358c-38.912 0-69.632-30.72-69.632-67.584s30.72-67.584 69.632-67.584 69.632 30.72 69.632 67.584c-2.048 36.864-32.768 67.584-69.632 67.584zM1464.32 812.542c-38.912 0-69.632-30.72-69.632-67.584s30.72-67.584 69.632-67.584 69.632 30.72 69.632 67.584-32.768 67.584-69.632 67.584z" />
<glyph unicode="&#xe612;" glyph-name="icon_calendar" d="M946.176-64.002h-888.832c-36.864 0-67.584 30.72-67.584 67.584v819.2c0 36.864 30.72 67.584 67.584 67.584h67.584v-137.216h272.384v139.264h204.8v-137.216h272.384v137.216h67.584c36.864 0 67.584-30.72 67.584-67.584v-819.2c4.096-38.912-26.624-69.632-63.488-69.632zM262.144 617.982h-135.168v-137.216h137.216v137.216zM262.144 413.182h-135.168v-137.216h137.216v137.216zM262.144 208.382h-135.168v-137.216h137.216v137.216zM466.944 617.982h-137.216v-137.216h137.216v137.216zM466.944 413.182h-137.216v-137.216h137.216v137.216zM671.744 617.982h-137.216v-137.216h137.216v137.216zM671.744 413.182h-137.216v-137.216h137.216v137.216zM876.544 617.982h-137.216v-137.216h137.216v137.216zM876.544 413.182h-137.216v-137.216h137.216v137.216zM671.744 959.998h137.216v-137.216h-137.216v137.216zM194.56 959.998h137.216v-137.216h-137.216v137.216z" />
<glyph unicode="&#xe613;" glyph-name="icon_brands" horiz-adv-x="1085" d="M522.24 169.47c10.24 8.192 28.672 8.192 38.912 0l301.056-219.136c10.24-8.192 16.384-4.096 12.288 8.192l-116.736 354.304c-4.096 12.288 2.048 30.72 12.288 36.864l301.056 219.136c10.24 8.192 8.192 14.336-4.096 14.336h-372.736c-14.336 0-28.672 10.24-32.768 22.528l-110.592 354.304c-4.096 12.288-10.24 12.288-14.336 0l-114.688-354.304c-4.096-12.288-18.432-22.528-32.768-22.528h-372.736c-14.336 0-16.384-6.144-4.096-14.336l301.056-219.136c10.24-8.192 16.384-24.576 12.288-36.864l-116.736-354.304c-4.096-12.288 2.048-16.384 12.288-8.192l301.056 219.136z" />
<glyph unicode="&#xe614;" glyph-name="icon_remove" d="M147.456 978.43l-145.408-145.408 364.544-364.544-364.544-366.592 145.408-147.456 364.544 366.592 366.592-366.592 145.408 147.456-364.544 364.544 364.544 366.592-145.408 147.456-364.544-366.592-366.592 364.544z" />
<glyph unicode="&#xe615;" glyph-name="icon_add" d="M1013.76 521.726h-438.272v438.272h-147.456v-438.272h-438.272v-147.456h438.272v-438.272h147.456v438.272h438.272z" />
<glyph unicode="&#xe616;" glyph-name="icon_back" horiz-adv-x="655" d="M555.008 945.662l67.584-65.536c18.432-18.432 18.432-47.104 0-65.536l-475.136-466.944c-18.432-18.432-49.152-18.432-67.584 0l-67.584 65.536c-18.432 18.432-18.432 47.104 0 65.536l475.136 466.944c18.432 18.432 49.152 18.432 67.584 0zM622.592 15.87l-67.584-65.536c-18.432-18.432-49.152-18.432-67.584 0l-475.136 464.896c-18.432 18.432-18.432 47.104 0 65.536l67.584 65.536c18.432 18.432 49.152 18.432 67.584 0l475.136-464.896c18.432-16.384 18.432-47.104 0-65.536z" />
<glyph unicode="&#xe617;" glyph-name="icon_user" horiz-adv-x="1101" d="M647.68 934.398c107.52-61.44 122.88-176.64 122.88-176.64v-138.24c0 0 0-104.96-71.68-145.92 0 0-5.12-30.72 0-28.16s-79.36-140.8 43.52-158.72c125.44-17.92 276.48-94.72 302.080-115.2 23.040-23.040 38.4-250.88 38.4-250.88h-1088c0 0-2.56 199.68 38.4 250.88 23.040 23.040 186.88 97.28 312.32 115.2s23.040 153.6 28.16 151.040c5.12-2.56 0 28.16 0 28.16s-69.12 84.48-69.12 163.84c0 76.8 0 128 0 128s5.12 186.88 133.12 186.88l209.92-10.24z" />
<glyph unicode="&#xe618;" glyph-name="icon_up" horiz-adv-x="2074" d="M1036.8 970.238l1024-1024h-2048l1024 1024z" />
<glyph unicode="&#xe619;" glyph-name="icon_down" horiz-adv-x="2074" d="M1036.8-53.762l-1024 1024h2048l-1024-1024z" />
<glyph unicode="&#xe61a;" glyph-name="icon_edit" d="M864.256 970.238c88.064 0 159.744-71.68 159.744-159.744 0-36.864-12.288-69.632-32.768-96.256l-63.488-63.488-223.232 223.232 63.488 63.488c26.624 20.48 59.392 32.768 96.256 32.768zM63.488 235.006l-63.488-288.768 288.768 63.488 591.872 591.872-225.28 225.28-591.872-591.872zM714.752 605.694l-446.464-446.464-55.296 55.296 448.512 448.512 53.248-57.344z" />
<glyph unicode="&#xe61b;" glyph-name="icon_delete" horiz-adv-x="840" d="M67.584 650.75v-638.976c0-34.816 28.672-63.488 63.488-63.488h575.488c34.816 0 63.488 28.672 63.488 63.488v638.976h-702.464zM260.096 73.214h-63.488v448.512h63.488v-448.512zM387.072 73.214h-63.488v448.512h63.488v-448.512zM516.096 73.214h-63.488v448.512h63.488v-448.512zM643.072 73.214h-63.488v448.512h63.488v-448.512zM788.48 843.262h-208.896v79.872c0 24.576-20.48 47.104-47.104 47.104h-225.28c-26.624 0-47.104-22.528-47.104-47.104v-79.872h-208.896c-26.624 0-47.104-22.528-47.104-47.104v-79.872h831.488v77.824c0 26.624-20.48 49.152-47.104 49.152zM516.096 843.262h-192.512v61.44h192.512v-61.44z" />
<glyph unicode="&#xe900;" glyph-name="icon_hide" d="M1024 521.726h-1024v-147.456h1024z" />
<glyph unicode="&#xe901;" glyph-name="icon_dark_light" d="M512 95.742v724.992c-65.536 0-126.976-16.384-182.272-49.152s-100.352-75.776-131.072-131.072-49.152-116.736-49.152-182.272 16.384-126.976 49.152-182.272 75.776-100.352 131.072-131.072 116.736-49.152 182.272-49.152zM1024 458.238c0-92.16-22.528-178.176-69.632-256-45.056-77.824-108.544-141.312-186.368-186.368s-163.84-69.632-256-69.632-178.176 22.528-256 69.632c-77.824 45.056-141.312 108.544-186.368 186.368s-69.632 163.84-69.632 256 22.528 178.176 69.632 256 108.544 141.312 186.368 186.368 163.84 69.632 256 69.632 178.176-22.528 256-69.632 141.312-108.544 186.368-186.368c47.104-77.824 69.632-163.84 69.632-256z" />
<glyph unicode="&#xe902;" glyph-name="icon_time" d="M596.48 693.758v-299.52c0-5.12-2.56-10.24-5.12-15.36s-10.24-5.12-15.36-5.12h-212.48c-5.12 0-10.24 2.56-15.36 5.12s-5.12 10.24-5.12 15.36v43.52c0 5.12 2.56 10.24 5.12 15.36s10.24 5.12 15.36 5.12h148.48v235.52c0 5.12 2.56 10.24 5.12 15.36s10.24 5.12 15.36 5.12h43.52c5.12 0 10.24-2.56 15.36-5.12s5.12-10.24 5.12-15.36zM875.52 458.238c0 66.56-15.36 125.44-48.64 181.76s-76.8 99.84-133.12 133.12-115.2 48.64-181.76 48.64-125.44-15.36-181.76-48.64-99.84-76.8-133.12-133.12-48.64-115.2-48.64-181.76 15.36-125.44 48.64-181.76 76.8-99.84 133.12-133.12 115.2-48.64 181.76-48.64 125.44 15.36 181.76 48.64 99.84 76.8 133.12 133.12 48.64 115.2 48.64 181.76zM1024 458.238c0-92.16-23.040-179.2-69.12-256-46.080-79.36-107.52-140.8-186.88-186.88-76.8-46.080-163.84-69.12-256-69.12s-179.2 23.040-256 69.12c-79.36 46.080-140.8 107.52-186.88 186.88s-69.12 163.84-69.12 256 23.040 179.2 69.12 256 107.52 140.8 186.88 186.88 163.84 69.12 256 69.12 179.2-23.040 256-69.12 140.8-107.52 186.88-186.88c46.080-76.8 69.12-163.84 69.12-256z" />
<glyph unicode="&#xe903;" glyph-name="icon_time2" d="M512 960c-282.77 0-512-229.23-512-512s229.23-512 512-512 512 229.23 512 512-229.23 512-512 512zM658.744 210.744l-210.744 210.746v282.51h128v-229.49l173.256-173.254-90.512-90.512z" />
<glyph unicode="&#xf0f3;" glyph-name="icon_bell" d="M521.143-18.286c0 5.143-4 9.143-9.143 9.143-45.143 0-82.286 37.143-82.286 82.286 0 5.143-4 9.143-9.143 9.143s-9.143-4-9.143-9.143c0-55.429 45.143-100.571 100.571-100.571 5.143 0 9.143 4 9.143 9.143zM987.429 146.286c0-40-33.143-73.143-73.143-73.143h-256c0-80.571-65.714-146.286-146.286-146.286s-146.286 65.714-146.286 146.286h-256c-40 0-73.143 33.143-73.143 73.143 84.571 71.429 182.857 199.429 182.857 475.429 0 109.714 90.857 229.714 242.286 252-2.857 6.857-4.571 14.286-4.571 22.286 0 30.286 24.571 54.857 54.857 54.857s54.857-24.571 54.857-54.857c0-8-1.714-15.429-4.571-22.286 151.429-22.286 242.286-142.286 242.286-252 0-276 98.286-404 182.857-475.429z" />
</font>
</defs>
</svg>
